<?xml version="1.0" standalone="no"?>
<!DOCTYPE svg PUBLIC "-//W3C//DTD SVG 1.1//EN" "http://www.w3.org/Graphics/SVG/1.1/DTD/svg11.dtd" >
<svg xmlns="http://www.w3.org/2000/svg">
<metadata>Generated by IcoMoon</metadata>
<defs>
<font id="hawcons" horiz-adv-x="1024">
<font-face units-per-em="1024" ascent="960" descent="-64" />
<missing-glyph horiz-adv-x="1024" />
<glyph unicode="&#x20;" horiz-adv-x="512" d="" />
<glyph unicode="&#xe900;" glyph-name="mail-envelope" d="M192.115 704h671.77c35.643 0 64.115-28.569 64.115-63.81v-384.38c0-35.185-28.705-63.81-64.115-63.81h-671.77c-35.643 0-64.115 28.569-64.115 63.81v384.38c0 35.185 28.705 63.81 64.115 63.81zM192.098 672c-17.727 0-32.098-14.398-32.098-32.219v-383.562c0-17.794 14.045-32.219 32.098-32.219h671.803c17.727 0 32.098 14.398 32.098 32.219v383.562c0 17.794-14.045 32.219-32.098 32.219h-671.803zM736 608h96v-96h-96v96zM768 576v-32h32v32h-32zM224 384v-32h256v32h-256zM224 608v-32h128v32h-128zM224 320v-32h256v32h-256z" />
<glyph unicode="&#xe901;" glyph-name="mail-envelope1" d="M192.115 704h671.77c35.643 0 64.115-28.569 64.115-63.81v-384.38c0-35.185-28.705-63.81-64.115-63.81h-671.77c-35.643 0-64.115 28.569-64.115 63.81v384.38c0 35.185 28.705 63.81 64.115 63.81zM224 608v-32h128v32h-128zM736 608v-96h96v96h-96zM768 576v-32h32v32h-32zM224 384v-32h256v32h-256zM224 320v-32h256v32h-256z" />
<glyph unicode="&#xe902;" glyph-name="mail-envelope-open" d="M660.421 320h-266.608l71.819-63.37 72.55-0.347-54.294-0.283h108.112l0.638 0.567-3.18-0.017 70.963 63.449zM696.21 352l103.79 92.801v258.923c0 17.826-14.551 32.276-31.999 32.276h-480.003c-17.672 0-31.999-14.2-31.999-32.066v-262.334l101.546-89.6h338.664zM418.909 768l109.091 96 109.091-96h130.992c35.408 0 63.918-28.648 63.918-63.988v-107.532l96-84.48v-448.19c0-35.185-28.705-63.81-64.115-63.81h-671.77c-35.643 0-64.115 28.569-64.115 63.81v448.19l96 84.48v107.532c0 35.59 28.617 63.988 63.918 63.988h130.992zM589.691 768l-61.691 54.4-61.691-54.4h123.381zM832 554.327v-84.994l48 42.667-48 42.327zM224 469.333v84.994l-48-42.327 48-42.667zM432 224l-224-192h640l-224 192h-192zM885.924 40.795v0 0c6.203 5.866 10.076 14.145 10.076 23.204v416.001l-256-224.547 245.924-214.659zM170.076 40.795l245.924 214.659-256 224.547v-416.001c0-9.060 3.872-17.338 10.076-23.204v0 0zM320 640v-32h416v32h-416zM320 544v-32h416v32h-416zM320 448v-32h416v32h-416z" />
<glyph unicode="&#xe903;" glyph-name="mail-envelope-open1" d="M361.381 352l-105.381 89.6v262.334c0 17.867 14.326 32.066 31.999 32.066h480.003c17.448 0 31.999-14.357 31.999-32.066v-262.334l-106.659-89.6h-331.96zM399.017 320l57.054-48.51h141.432l57.746 48.51h-256.231zM709.925 315.936l-69.925-59.936 189.538-162.462-25.846-25.846-191.866 164.457-167.149-0.729-0.677 0.58-191.692-164.308-25.846 25.846 189.538 162.462-69.925 59.936-122.075 103.263v177.281l-96-84.48v-448.19c0-35.241 28.472-63.81 64.115-63.81h671.77c35.41 0 64.115 28.624 64.115 63.81v448.19l-96 84.48v-177.281l-122.075-103.263zM637.091 768l-109.091 96-109.091-96h218.182zM320 640v-32h416v32h-416zM320 544v-32h416v32h-416zM320 448v-32h416v32h-416z" />
<glyph unicode="&#xe904;" glyph-name="mail-envelope-closed" d="M170.080 663.235l357.92-311.235 357.981 311.287c6.206-5.878 10.019-14.235 10.019-23.507v-383.562c0-17.821-14.371-32.219-32.098-32.219h-671.803c-18.053 0-32.098 14.425-32.098 32.219v383.562c0 9.253 3.874 17.582 10.080 23.454zM192.115 704c-35.41 0-64.115-28.624-64.115-63.81v-384.38c0-35.241 28.472-63.81 64.115-63.81h671.77c35.41 0 64.115 28.624 64.115 63.81v384.38c0 35.241-28.472 63.81-64.115 63.81h-671.77zM528 393.6l-320 278.4h640l-320-278.4z" />
<glyph unicode="&#xe905;" glyph-name="mail-envelope-closed1" d="M226.462 610.462l25.846 25.846 275.692-236.308 275.692 236.308 25.846-25.846-301.538-258.462-301.538 258.462zM192.115 704c-35.41 0-64.115-28.624-64.115-63.81v-384.38c0-35.241 28.472-63.81 64.115-63.81h671.77c35.41 0 64.115 28.624 64.115 63.81v384.38c0 35.241-28.472 63.81-64.115 63.81h-671.77z" />
<glyph unicode="&#xe906;" glyph-name="mail-envelope-open2" d="M528 822.4l-352-310.4 352-304 352 304-352 310.4zM896 483.84l-368-323.84-368 323.84v-419.947c0-17.614 14.045-31.893 32.098-31.893h671.803c17.727 0 32.098 14.395 32.098 31.893v419.947zM928 63.81c0-35.185-28.705-63.81-64.115-63.81h-671.77c-35.643 0-64.115 28.569-64.115 63.81v448.19l400 352 400-352v-448.19z" />
<glyph unicode="&#xe907;" glyph-name="mail-envelope-open3" d="M226.462 418.462l301.538-258.462 301.538 258.462-26.471 26.471-275.067-230.532-275.067 230.532-26.471-26.471zM928 512v-448.19c0-35.185-28.705-63.81-64.115-63.81h-671.77c-35.643 0-64.115 28.569-64.115 63.81v448.19l400 352 400-352z" />
<glyph unicode="&#xe908;" glyph-name="mail-envelope-open4" d="M538.182 256.283l-54.294-0.283h108.112l0.638 0.567-3.18-0.017 210.542 188.25v258.923c0 17.826-14.551 32.276-31.999 32.276h-480.003c-17.672 0-31.999-14.2-31.999-32.066v-262.334l209.632-184.97 72.55-0.347zM418.909 768l109.091 96 109.091-96h130.992c35.408 0 63.918-28.648 63.918-63.988v-107.532l96-84.48v-448.19c0-35.185-28.705-63.81-64.115-63.81h-671.77c-35.643 0-64.115 28.569-64.115 63.81v448.19l96 84.48v107.532c0 35.59 28.617 63.988 63.918 63.988h130.992zM589.691 768l-61.691 54.4-61.691-54.4h123.381zM832 554.327v-84.994l48 42.667-48 42.327zM224 469.333v84.994l-48-42.327 48-42.667zM432 224l-224-192h640l-224 192h-192zM885.924 40.795v0 0c6.203 5.866 10.076 14.145 10.076 23.204v416.001l-256-224.547 245.924-214.659zM170.076 40.795l245.924 214.659-256 224.547v-416.001c0-9.060 3.872-17.338 10.076-23.204v0 0z" />
<glyph unicode="&#xe909;" glyph-name="mail-envelope-open5" d="M709.925 315.936l-69.925-59.936 189.538-162.462-25.846-25.846-191.866 164.457-167.149-0.729-0.677 0.58-191.692-164.308-25.846 25.846 189.538 162.462-69.925 59.936-122.075 103.263v177.281l-96-84.48v-448.19c0-35.241 28.472-63.81 64.115-63.81h671.77c35.41 0 64.115 28.624 64.115 63.81v448.19l-96 84.48v-177.281l-122.075-103.263zM418.909 768l109.091 96 109.091-96h-218.182zM287.999 736c-17.672 0-31.999-14.2-31.999-32.066v-262.334l200.070-170.109h141.432l202.498 170.109v262.334c0 17.71-14.551 32.066-31.999 32.066h-480.003z" />
<glyph unicode="&#xe90a;" glyph-name="mail-envelope-closed2" d="M170.080 663.235l247.52-215.235-247.581-215.287c-6.206 5.878-10.019 14.235-10.019 23.507v383.562c0 9.253 3.874 17.582 10.080 23.454zM885.981 663.287c6.206-5.878 10.019-14.235 10.019-23.507v-383.562c0-9.252-3.874-17.582-10.080-23.454l-247.52 215.235 247.581 215.287zM614.459 427.181l233.541-203.181h-640l233.541 203.181 86.459-75.181 86.459 75.181zM192.115 704c-35.41 0-64.115-28.624-64.115-63.81v-384.38c0-35.241 28.472-63.81 64.115-63.81h671.77c35.41 0 64.115 28.624 64.115 63.81v384.38c0 35.241-28.472 63.81-64.115 63.81h-671.77zM528 393.6l-320 278.4h640l-320-278.4z" />
<glyph unicode="&#xe90b;" glyph-name="mail-envelope-closed3" d="M829.538 285.538l-25.846-25.846-191.692 164.308-84-72-84 72-191.692-164.308-25.846 25.846 189.538 162.462-189.538 162.462 25.846 25.846 275.692-236.308 275.692 236.308 25.846-25.846-189.538-162.462 189.538-162.462zM192.115 704c-35.41 0-64.115-28.624-64.115-63.81v-384.38c0-35.241 28.472-63.81 64.115-63.81h671.77c35.41 0 64.115 28.624 64.115 63.81v384.38c0 35.241-28.472 63.81-64.115 63.81h-671.77z" />
<glyph unicode="&#xe90c;" glyph-name="mail-envelope-open6" d="M528 864l-400-352v-448.19c0-35.241 28.472-63.81 64.115-63.81h671.77c35.41 0 64.115 28.624 64.115 63.81v448.19l-400 352zM432 224h192l224-192h-640l224 192zM528 822.4l352-310.4-288-256h-128l-288 256 352 310.4zM885.924 40.795l-245.924 214.659 256 224.547v-416.001c0-9.060-3.872-17.338-10.076-23.204v0 0zM170.076 40.795v0 0c-6.203 5.866-10.076 14.145-10.076 23.204v416.001l256-224.547-245.924-214.659z" />
<glyph unicode="&#xe90d;" glyph-name="mail-envelope-open7" d="M528 864l-400-352v-448.2c0-35.2 28.5-63.8 64.1-63.8h671.8c35.4 0 64.1 28.6 64.1 63.8v448.2l-400 352zM829.5 93.5v0l-25.8-25.8-191.7 164.3-84-72-84 72-191.7-164.3-25.8 25.8 189.5 162.5-189.5 162.5 25.8 25.8 275.7-236.3 275.7 236.3 25.8-25.8-189.5-162.5 189.5-162.5z" />
<glyph unicode="&#xe90e;" glyph-name="mail-error" d="M832 398.769v273.012c0 9.271-3.813 17.628-10.019 23.507v0l-247.581-215.287 138.456-120.397 71.144 120.397 48-81.231zM696.579 332.057l-146.12 127.125-86.459-75.181-86.459 75.181-233.541-203.181h507.636l44.942 76.057zM632.727 224h-504.612c-35.643 0-64.115 28.569-64.115 63.81v384.38c0 35.185 28.705 63.81 64.115 63.81h671.77c35.643 0 64.115-28.569 64.115-63.81v-327.575l128-216.615h-416l56.727 96zM106.080 695.235c-6.206-5.871-10.080-14.201-10.080-23.454v-383.562c0-9.271 3.813-17.628 10.019-23.507v0l247.581 215.287-247.52 215.235zM464 425.6l320 278.4h-640l320-278.4zM784 416l-152-256h304l-152 256zM768 352v-96h32v96h-32zM768 224v-32h32v32h-32z" />
<glyph unicode="&#xe90f;" glyph-name="mail-error1" d="M689.033 383.115l-113.033 96.885 189.538 162.462-25.846 25.846-275.692-236.308-275.692 236.308-25.846-25.846 189.538-162.462-189.538-162.462 25.846-25.846 191.692 164.308 84-72 84 72 122.219-104.759-75.108-127.241h-466.996c-35.643 0-64.115 28.569-64.115 63.81v384.38c0 35.185 28.705 63.81 64.115 63.81h671.77c35.643 0 64.115-28.569 64.115-63.81v-263.719l-80 135.529-94.967-160.885zM784 480l208-352h-416l208 352zM768 352v-96h32v96h-32zM768 224v-32h32v32h-32z" />
<glyph unicode="&#xe910;" glyph-name="mail-checked" d="M832 479.283v192.498c0 9.271-3.813 17.628-10.019 23.507v0l-247.581-215.287 93.321-81.148c31.285 48.805 86.005 81.148 148.279 81.148 5.393 0 10.73-0.243 16-0.717v0 0zM652.838 370.111l-102.38 89.070-86.459-75.181-86.459 75.181-233.541-203.181h502.625c-4.316 15.259-6.625 31.36-6.625 48 0 23.382 4.56 45.699 12.838 66.111v0 0zM659.191 224h-531.076c-35.643 0-64.115 28.569-64.115 63.81v384.38c0 35.185 28.705 63.81 64.115 63.81h671.77c35.643 0 64.115-28.569 64.115-63.81v-198.815c73.872-20.894 128-88.813 128-169.375 0-97.202-78.798-176-176-176-68.395 0-127.678 39.013-156.809 96v0zM106.080 695.235c-6.206-5.871-10.080-14.201-10.080-23.454v-383.562c0-9.271 3.813-17.628 10.019-23.507v0l247.581 215.287-247.52 215.235zM464 425.6l320 278.4h-640l320-278.4zM816 160c79.529 0 144 64.471 144 144s-64.471 144-144 144c-79.529 0-144-64.471-144-144s64.471-144 144-144v0 0zM800 216.235l-75.314 75.314 23.431 23.431 51.882-51.882 99.882 99.882 23.431-23.431-123.314-123.314z" />
<glyph unicode="&#xe911;" glyph-name="mail-checked1" d="M644.309 421.45l-68.309 58.55 189.538 162.462-25.846 25.846-275.692-236.308-275.692 236.308-25.846-25.846 189.538-162.462-189.538-162.462 25.846-25.846 191.692 164.308 84-72 84 72 78.121-66.961c-11.645-25.961-18.121-54.743-18.121-85.039 0-28.349 5.671-55.373 15.941-80h-495.826c-35.643 0-64.115 28.569-64.115 63.81v384.38c0 35.185 28.705 63.81 64.115 63.81h671.77c35.643 0 64.115-28.569 64.115-63.81v-165.756c-15.409 3.64-31.479 5.566-48 5.566-71.296 0-134.214-35.871-171.691-90.55v0 0zM816 128c97.202 0 176 78.798 176 176s-78.798 176-176 176c-97.202 0-176-78.798-176-176s78.798-176 176-176v0zM800 216.235l-75.314 75.314 23.431 23.431 51.882-51.882 99.882 99.882 23.431-23.431-123.314-123.314z" />
<glyph unicode="&#xe912;" glyph-name="mail-cancel" d="M816 281.373l-67.882-67.882-22.627 22.627 67.882 67.882-67.882 67.882 22.627 22.627 67.882-67.882 67.882 67.882 22.627-22.627-67.882-67.882 67.882-67.882-22.627-22.627-67.882 67.882zM832 479.283v192.498c0 9.271-3.813 17.628-10.019 23.507v0l-247.581-215.287 93.321-81.148c31.285 48.805 86.005 81.148 148.279 81.148 5.393 0 10.73-0.243 16-0.717v0 0zM652.838 370.111l-102.38 89.070-86.459-75.181-86.459 75.181-233.541-203.181h502.625c-4.316 15.259-6.625 31.36-6.625 48 0 23.382 4.56 45.699 12.838 66.111v0 0zM659.191 224h-531.076c-35.643 0-64.115 28.569-64.115 63.81v384.38c0 35.185 28.705 63.81 64.115 63.81h671.77c35.643 0 64.115-28.569 64.115-63.81v-198.815c73.872-20.894 128-88.813 128-169.375 0-97.202-78.798-176-176-176-68.395 0-127.678 39.013-156.809 96v0zM106.080 695.235c-6.206-5.871-10.080-14.201-10.080-23.454v-383.562c0-9.271 3.813-17.628 10.019-23.507v0l247.581 215.287-247.52 215.235zM464 425.6l320 278.4h-640l320-278.4zM816 160c79.529 0 144 64.471 144 144s-64.471 144-144 144c-79.529 0-144-64.471-144-144s64.471-144 144-144v0 0z" />
<glyph unicode="&#xe913;" glyph-name="mail-cancel1" d="M816 281.373l-67.882-67.882-22.627 22.627 67.882 67.882-67.882 67.882 22.627 22.627 67.882-67.882 67.882 67.882 22.627-22.627-67.882-67.882 67.882-67.882-22.627-22.627-67.882 67.882zM644.309 421.45l-68.309 58.55 189.538 162.462-25.846 25.846-275.692-236.308-275.692 236.308-25.846-25.846 189.538-162.462-189.538-162.462 25.846-25.846 191.692 164.308 84-72 84 72 78.121-66.961c-11.645-25.961-18.121-54.743-18.121-85.039 0-28.349 5.671-55.373 15.941-80h-495.826c-35.643 0-64.115 28.569-64.115 63.81v384.38c0 35.185 28.705 63.81 64.115 63.81h671.77c35.643 0 64.115-28.569 64.115-63.81v-165.756c-15.409 3.64-31.479 5.566-48 5.566-71.296 0-134.214-35.871-171.691-90.55v0 0zM816 128c97.202 0 176 78.798 176 176s-78.798 176-176 176c-97.202 0-176-78.798-176-176s78.798-176 176-176v0z" />
<glyph unicode="&#xe914;" glyph-name="mail--forbidden" d="M928.51 393.883l-202.393-202.393c24.635-19.706 55.883-31.49 89.883-31.49 79.529 0 144 64.471 144 144 0 34-11.784 65.248-31.49 89.883zM905.883 416.51c-24.635 19.706-55.883 31.49-89.883 31.49-79.529 0-144-64.471-144-144 0-34 11.784-65.248 31.49-89.883l202.393 202.393zM832 479.283v192.498c0 9.271-3.813 17.628-10.019 23.507v0l-247.581-215.287 93.321-81.148c31.285 48.805 86.005 81.148 148.279 81.148 5.393 0 10.73-0.243 16-0.717v0 0zM652.838 370.111l-102.38 89.070-86.459-75.181-86.459 75.181-233.541-203.181h502.625c-4.316 15.259-6.625 31.36-6.625 48 0 23.382 4.56 45.699 12.838 66.111v0 0zM659.191 224h-531.076c-35.643 0-64.115 28.569-64.115 63.81v384.38c0 35.185 28.705 63.81 64.115 63.81h671.77c35.643 0 64.115-28.569 64.115-63.81v-198.815c73.872-20.894 128-88.813 128-169.375 0-97.202-78.798-176-176-176-68.395 0-127.678 39.013-156.809 96v0zM106.080 695.235c-6.206-5.871-10.080-14.201-10.080-23.454v-383.562c0-9.271 3.813-17.628 10.019-23.507v0l247.581 215.287-247.52 215.235zM464 425.6l320 278.4h-640l320-278.4z" />
<glyph unicode="&#xe915;" glyph-name="mail--forbidden1" d="M951.252 416.625c25.442-30.52 40.748-69.785 40.748-112.625 0-97.202-78.798-176-176-176-42.84 0-82.105 15.306-112.625 40.748l247.877 247.877zM928.625 439.252c-30.52 25.442-69.785 40.748-112.625 40.748-97.202 0-176-78.798-176-176 0-42.84 15.306-82.105 40.748-112.625l247.877 247.877zM644.309 421.45l-68.309 58.55 189.538 162.462-25.846 25.846-275.692-236.308-275.692 236.308-25.846-25.846 189.538-162.462-189.538-162.462 25.846-25.846 191.692 164.308 84-72 84 72 78.121-66.961c-11.645-25.961-18.121-54.743-18.121-85.039 0-28.349 5.671-55.373 15.941-80h-495.826c-35.643 0-64.115 28.569-64.115 63.81v384.38c0 35.185 28.705 63.81 64.115 63.81h671.77c35.643 0 64.115-28.569 64.115-63.81v-165.756c-15.409 3.64-31.479 5.566-48 5.566-71.296 0-134.214-35.871-171.691-90.55v0 0z" />
<glyph unicode="&#xe916;" glyph-name="mail-add" d="M800 320v96h32v-96h96v-32h-96v-96h-32v96h-96v32h96zM832 479.283v192.498c0 9.271-3.813 17.628-10.019 23.507v0l-247.581-215.287 93.321-81.148c31.285 48.805 86.005 81.148 148.279 81.148 5.393 0 10.73-0.243 16-0.717v0 0zM652.838 370.111l-102.38 89.070-86.459-75.181-86.459 75.181-233.541-203.181h502.625c-4.316 15.259-6.625 31.36-6.625 48 0 23.382 4.56 45.699 12.838 66.111v0 0zM659.191 224h-531.076c-35.643 0-64.115 28.569-64.115 63.81v384.38c0 35.185 28.705 63.81 64.115 63.81h671.77c35.643 0 64.115-28.569 64.115-63.81v-198.815c73.872-20.894 128-88.813 128-169.375 0-97.202-78.798-176-176-176-68.395 0-127.678 39.013-156.809 96v0zM106.080 695.235c-6.206-5.871-10.080-14.201-10.080-23.454v-383.562c0-9.271 3.813-17.628 10.019-23.507v0l247.581 215.287-247.52 215.235zM464 425.6l320 278.4h-640l320-278.4zM816 160c79.529 0 144 64.471 144 144s-64.471 144-144 144c-79.529 0-144-64.471-144-144s64.471-144 144-144v0 0z" />
<glyph unicode="&#xe917;" glyph-name="mail-add1" d="M800 288h-96v32h96v96h32v-96h96v-32h-96v-96h-32v96zM644.309 421.45l-68.309 58.55 189.538 162.462-25.846 25.846-275.692-236.308-275.692 236.308-25.846-25.846 189.538-162.462-189.538-162.462 25.846-25.846 191.692 164.308 84-72 84 72 78.121-66.961c-11.645-25.961-18.121-54.743-18.121-85.039 0-28.349 5.671-55.373 15.941-80h-495.826c-35.643 0-64.115 28.569-64.115 63.81v384.38c0 35.185 28.705 63.81 64.115 63.81h671.77c35.643 0 64.115-28.569 64.115-63.81v-165.756c-15.409 3.64-31.479 5.566-48 5.566-71.296 0-134.214-35.871-171.691-90.55v0 0zM816 128c97.202 0 176 78.798 176 176s-78.798 176-176 176c-97.202 0-176-78.798-176-176s78.798-176 176-176v0z" />
<glyph unicode="&#xe918;" glyph-name="mail-remove" d="M832 479.283v192.498c0 9.271-3.813 17.628-10.019 23.507v0l-247.581-215.287 93.321-81.148c31.285 48.805 86.005 81.148 148.279 81.148 5.393 0 10.73-0.243 16-0.717v0 0zM652.838 370.111l-102.38 89.070-86.459-75.181-86.459 75.181-233.541-203.181h502.625c-4.316 15.259-6.625 31.36-6.625 48 0 23.382 4.56 45.699 12.838 66.111v0 0zM659.191 224h-531.076c-35.643 0-64.115 28.569-64.115 63.81v384.38c0 35.185 28.705 63.81 64.115 63.81h671.77c35.643 0 64.115-28.569 64.115-63.81v-198.815c73.872-20.894 128-88.813 128-169.375 0-97.202-78.798-176-176-176-68.395 0-127.678 39.013-156.809 96v0zM106.080 695.235c-6.206-5.871-10.080-14.201-10.080-23.454v-383.562c0-9.271 3.813-17.628 10.019-23.507v0l247.581 215.287-247.52 215.235zM464 425.6l320 278.4h-640l320-278.4zM816 160c79.529 0 144 64.471 144 144s-64.471 144-144 144c-79.529 0-144-64.471-144-144s64.471-144 144-144v0 0zM704 320v-32h224v32h-224z" />
<glyph unicode="&#xe919;" glyph-name="mail-remove1" d="M644.309 421.45l-68.309 58.55 189.538 162.462-25.846 25.846-275.692-236.308-275.692 236.308-25.846-25.846 189.538-162.462-189.538-162.462 25.846-25.846 191.692 164.308 84-72 84 72 78.121-66.961c-11.645-25.961-18.121-54.743-18.121-85.039 0-28.349 5.671-55.373 15.941-80h-495.826c-35.643 0-64.115 28.569-64.115 63.81v384.38c0 35.185 28.705 63.81 64.115 63.81h671.77c35.643 0 64.115-28.569 64.115-63.81v-165.756c-15.409 3.64-31.479 5.566-48 5.566-71.296 0-134.214-35.871-171.691-90.55v0 0zM816 128v0c-97.202 0-176 78.798-176 176s78.798 176 176 176c97.202 0 176-78.798 176-176s-78.798-176-176-176zM704 320v-32h224v32h-224z" />
<glyph unicode="&#xe91a;" glyph-name="flag" d="M256 624v208c0 0 95.24 71.562 256 0s256 0 256 0v-352c0 0-95.275-69.996-256 0-105.964 46.148-183.48 31.446-224 16.071v-464.071h-32v592zM496.66 803.199c-131.145 57.668-208.66 9.602-208.66 9.602v-282.805c0 0 100.94 40.532 236.057-20.633 126.559-57.291 212.506-10.891 212.506-10.891v285.527c0 0-96.734-43.756-239.902 19.199v0 0z" />
<glyph unicode="&#xe91b;" glyph-name="flag1" d="M256 624.194v-592h32v464.071c40.52 15.375 118.036 30.077 224-16.071 160.725-69.996 256 0 256 0v352c0 0-95.24-71.563-256 0s-256 0-256 0v-208z" />
<glyph unicode="&#xe91c;" glyph-name="flag2" d="M256 688v176h512l-176-176 176-176h-480v-480h-32v656zM288 832v-288h400l-144 144 144 144h-400z" />
<glyph unicode="&#xe91d;" glyph-name="flag3" d="M256 688v-656h32v480h480l-176 176 176 176h-512v-176z" />
<glyph unicode="&#xe91e;" glyph-name="flag4" d="M288 656v208l448-192-416-178.286v-461.714h-32v624zM320 816v-288l336 144-336 144z" />
<glyph unicode="&#xe91f;" glyph-name="flag5" d="M288 656v-624h32v461.714l416 178.286-448 192v-208z" />
<glyph unicode="&#xe920;" glyph-name="flag6" d="M224 688v176h512v-352h-480v-480h-32v656zM256 832v-288h448v288h-448z" />
<glyph unicode="&#xe921;" glyph-name="flag7" d="M224 688v-656h32v480h480v352h-512v-176z" />
<glyph unicode="&#xe922;" glyph-name="bookmark" d="M415.909 832h192.182c52.977 0 95.909-42.853 95.909-95.715v-672.285l-192 192-192-192v672.285c0 52.778 42.94 95.715 95.909 95.715zM415.988 800c-35.339 0-63.988-28.749-63.988-63.806v-595.393l160 160 160-160v595.393c0 35.239-28.398 63.806-63.988 63.806h-192.025z" />
<glyph unicode="&#xe923;" glyph-name="bookmark1" d="M415.909 832c-52.969 0-95.909-42.937-95.909-95.715v-672.285l192 192 192-192v672.285c0 52.862-42.932 95.715-95.909 95.715h-192.182z" />
<glyph unicode="&#xe924;" glyph-name="bookmark-add" d="M608 544v96h32v-96h96v-32h-96v-96h-32v96h-96v32h96zM640 352.717v0 0c89.704 8.084 160 83.474 160 175.283s-70.296 167.199-160 175.283v33.003c0 52.862-42.932 95.715-95.909 95.715h-192.182c-52.969 0-95.909-42.937-95.909-95.715v-672.285l192 192 192-192v288.717zM608 352.717v-211.917l-160 160-160-160v595.393c0 35.057 28.648 63.806 63.988 63.806h192.025c35.59 0 63.988-28.567 63.988-63.806v-32.912c-89.704-8.084-160-83.474-160-175.283s70.296-167.199 160-175.283v0 0zM624 384v0 0c-79.529 0-144 64.471-144 144s64.471 144 144 144c79.529 0 144-64.471 144-144s-64.471-144-144-144z" />
<glyph unicode="&#xe925;" glyph-name="bookmark-add1" d="M608 544v96h32v-96h96v-32h-96v-96h-32v96h-96v32h96zM640 320.606v-256.606l-192 192-192-192v672.285c0 52.778 42.94 95.715 95.909 95.715h192.182c52.977 0 95.909-42.853 95.909-95.715v-0.891c-5.281 0.402-10.616 0.606-16 0.606-114.875 0-208-93.125-208-208s93.125-208 208-208c5.384 0 10.719 0.205 16 0.606v0 0zM624 352c97.202 0 176 78.798 176 176s-78.798 176-176 176c-97.202 0-176-78.798-176-176s78.798-176 176-176v0z" />
<glyph unicode="&#xe926;" glyph-name="bookmark-remove" d="M640 352.717v0 0c89.704 8.084 160 83.474 160 175.283s-70.296 167.199-160 175.283v33.003c0 52.862-42.932 95.715-95.909 95.715h-192.182c-52.969 0-95.909-42.937-95.909-95.715v-672.285l192 192 192-192v288.717zM608 352.717v-211.917l-160 160-160-160v595.393c0 35.057 28.648 63.806 63.988 63.806h192.025c35.59 0 63.988-28.567 63.988-63.806v-32.912c-89.704-8.084-160-83.474-160-175.283s70.296-167.199 160-175.283v0 0zM624 384v0 0c-79.529 0-144 64.471-144 144s64.471 144 144 144c79.529 0 144-64.471 144-144s-64.471-144-144-144zM512 544v-32h224v32h-224z" />
<glyph unicode="&#xe927;" glyph-name="bookmark-remove1" d="M640 320.606v-256.606l-192 192-192-192v672.285c0 52.778 42.94 95.715 95.909 95.715h192.182c52.977 0 95.909-42.853 95.909-95.715v-0.891c-5.281 0.402-10.616 0.606-16 0.606-114.875 0-208-93.125-208-208s93.125-208 208-208c5.384 0 10.719 0.205 16 0.606v0 0zM624 352v0c-97.202 0-176 78.798-176 176s78.798 176 176 176c97.202 0 176-78.798 176-176s-78.798-176-176-176zM512 544v-32h224v32h-224z" />
<glyph unicode="&#xe928;" glyph-name="eye-hidden" d="M259.478 291.478c-111.728 65.958-163.478 156.522-163.478 156.522s128 224 416 224c41.744 0 80.127-4.706 115.246-12.754l-27.185-27.185c-27.352 5.057-56.698 7.939-88.061 7.939-256 0-377.602-192-377.602-192s48.473-76.535 148.639-132.962l-23.559-23.559zM396.754 236.754c35.119-8.048 73.502-12.754 115.246-12.754 288 0 416 224 416 224s-51.751 90.564-163.478 156.522l-23.559-23.559c100.166-56.427 148.639-132.962 148.639-132.962s-121.602-192-377.602-192c-31.363 0-60.709 2.882-88.061 7.939l-27.185-27.185zM636.757 476.757c2.122-9.244 3.243-18.869 3.243-28.757 0-70.692-57.308-128-128-128-9.888 0-19.513 1.121-28.757 3.243l28.757 28.757c24.569 0 49.137 9.373 67.882 28.118s28.118 43.314 28.118 67.882l28.757 28.757zM540.757 572.757c-9.244 2.122-18.869 3.243-28.757 3.243-70.692 0-128-57.308-128-128 0-9.888 1.121-19.513 3.243-28.757l28.757 28.757c0 24.569 9.373 49.137 28.118 67.882s43.314 28.118 67.882 28.118l28.757 28.757zM768 736l-544-544 32-32 544 544-32 32z" />
<glyph unicode="&#xe929;" glyph-name="eye-hidden1" d="M259.478 291.478c-111.728 65.958-163.478 156.522-163.478 156.522s128 224 416 224c41.744 0 80.127-4.706 115.246-12.754l-86.489-86.489c-9.244 2.122-18.869 3.243-28.757 3.243-70.692 0-128-57.308-128-128 0-9.888 1.121-19.513 3.243-28.757l-127.765-127.765zM396.754 236.754c35.119-8.048 73.502-12.754 115.246-12.754 288 0 416 224 416 224s-51.751 90.564-163.478 156.522l-127.765-127.765c2.122-9.244 3.243-18.869 3.243-28.757 0-70.692-57.308-128-128-128-9.888 0-19.513 1.121-28.757 3.243l-86.489-86.489zM608 448c0-24.569-9.373-49.137-28.118-67.882s-43.314-28.118-67.882-28.118l96 96zM512 544c-24.569 0-49.137-9.373-67.882-28.118s-28.118-43.314-28.118-67.882l96 96zM768 736l-544-544 32-32 544 544-32 32z" />
<glyph unicode="&#xe92a;" glyph-name="eye" d="M512 672v0 0c288 0 416-224 416-224s-128-224-416-224c-288 0-416 224-416 224s128 224 416 224zM512 640c-256 0-377.602-192-377.602-192s121.602-192 377.602-192c256 0 377.602 192 377.602 192s-121.602 192-377.602 192v0 0zM512 320v0 0c-70.692 0-128 57.308-128 128s57.308 128 128 128c70.692 0 128-57.308 128-128s-57.308-128-128-128zM512 352c53.019 0 96 42.981 96 96s-42.981 96-96 96c-53.019 0-96-42.981-96-96s42.981-96 96-96v0 0zM512 416c17.673 0 32 14.327 32 32s-14.327 32-32 32c-17.673 0-32-14.327-32-32s14.327-32 32-32v0 0z" />
<glyph unicode="&#xe92b;" glyph-name="eye1" d="M512 672v0c288 0 416-224 416-224s-128-224-416-224c-288 0-416 224-416 224s128 224 416 224zM512 320c70.692 0 128 57.308 128 128s-57.308 128-128 128c-70.692 0-128-57.308-128-128s57.308-128 128-128v0zM512 352v0c-53.019 0-96 42.981-96 96s42.981 96 96 96c53.019 0 96-42.981 96-96s-42.981-96-96-96zM512 416c17.673 0 32 14.327 32 32s-14.327 32-32 32c-17.673 0-32-14.327-32-32s14.327-32 32-32v0z" />
<glyph unicode="&#xe92c;" glyph-name="star" d="M512 224l288-192-128 320 288 192h-320l-128 320-128-320h-320l288-192-128-320 288 192zM512 263.902l-217.6-145.502 102.4 246.399-230.4 147.2h239.998l105.602 272 105.602-272h240l-230.402-147.2 102.402-246.399-217.602 145.502z" />
<glyph unicode="&#xe92d;" glyph-name="star1" d="M512 224l-288-192 128 320-288 192h320l128 320 128-320h320l-288-192 128-320z" />
<glyph unicode="&#xe92e;" glyph-name="key" d="M593.037 337.037l-145.037-145.037h-96v-96h-96v-96h-160v160l337.037 337.037c-11.016 29.564-17.037 61.56-17.037 94.963 0 150.221 121.779 272 272 272s272-121.779 272-272c0-150.221-121.779-272-272-272-33.403 0-65.399 6.021-94.963 17.037v0 0zM447.96 463.96l-319.96-319.96v-112h96v96h96v96h112l127.96 127.96c-47.513 25.397-86.603 64.487-112 112v0 0zM928 592c0 132.548-107.452 240-240 240s-240-107.452-240-240c0-132.548 107.452-240 240-240s240 107.452 240 240v0 0zM864 672v0 0c0-53.019-42.981-96-96-96s-96 42.981-96 96c0 53.019 42.981 96 96 96s96-42.981 96-96zM832 672c0 35.346-28.654 64-64 64s-64-28.654-64-64c0-35.346 28.654-64 64-64s64 28.654 64 64v0 0z" />
<glyph unicode="&#xe92f;" glyph-name="key1" d="M593.037 337.037l-145.037-145.037h-96v-96h-96v-96h-160v160l337.037 337.037c-11.016 29.564-17.037 61.56-17.037 94.963 0 150.221 121.779 272 272 272s272-121.779 272-272c0-150.221-121.779-272-272-272-33.403 0-65.399 6.021-94.963 17.037v0 0zM864 672c0 53.019-42.981 96-96 96s-96-42.981-96-96c0-53.019 42.981-96 96-96s96 42.981 96 96v0z" />
<glyph unicode="&#xe930;" glyph-name="key2" d="M545.077 532.228l-406.918-407.548c-13.74-13.761-13.734-36.138-0.067-49.901l0.588-0.593c13.703-13.799 35.8-14.002 49.705-0.104l84.787 84.745 78.827-78.827 48 48-78.815 78.815 96.024 95.976 62.791-62.791 48 48-62.779 62.779 130.624 130.559c30.801-21.036 68.041-33.338 108.154-33.338 106.039 0 192 85.961 192 192s-85.961 192-192 192c-106.039 0-192-85.961-192-192 0-39.948 12.2-77.046 33.077-107.772zM416 256l-48-48 80-80-96-96-80 80-60.015-60.015c-26.923-26.923-70.528-27.044-97.348-0.223l1.125-1.125c-26.779 26.779-26.72 70.405 0.223 97.348l389.037 389.037c-15.989 30.831-25.022 65.85-25.022 102.978 0 123.712 100.288 224 224 224s224-100.288 224-224c0-123.712-100.288-224-224-224-37.129 0-72.147 9.033-102.978 25.022v0l-89.022-89.022 64-64-96-96-64 64zM704 512v0 0c-70.692 0-128 57.308-128 128s57.308 128 128 128c70.692 0 128-57.308 128-128s-57.308-128-128-128zM704 544c53.019 0 96 42.981 96 96s-42.981 96-96 96c-53.019 0-96-42.981-96-96s42.981-96 96-96v0 0z" />
<glyph unicode="&#xe931;" glyph-name="key3" d="M416.273 256l-48-48 80-80-96-96-80 80-60.015-60.015c-26.923-26.923-70.528-27.044-97.348-0.223l1.125-1.125c-26.779 26.779-26.72 70.405 0.223 97.348l389.037 389.037c-15.989 30.831-25.022 65.85-25.022 102.978 0 123.712 100.288 224 224 224s224-100.288 224-224c0-123.712-100.288-224-224-224-37.129 0-72.147 9.033-102.978 25.022v0l-89.022-89.022 64-64-96-96-64 64zM704.273 512c70.692 0 128 57.308 128 128s-57.308 128-128 128c-70.692 0-128-57.308-128-128s57.308-128 128-128v0z" />
<glyph unicode="&#xe932;" glyph-name="trash-can" d="M672 768h128v-32h-544v32h128v32c0 35.593 28.616 64 63.917 64h160.167c35.249 0 63.917-28.654 63.917-64v-32zM256 704h544v-607.956c0-53.066-42.982-96.044-96.004-96.044h-351.992c-53.317 0-96.004 43.001-96.004 96.044v607.956zM288 672v-576.295c0-35.184 28.589-63.705 63.74-63.705h352.519c35.203 0 63.74 28.743 63.74 63.705v576.295h-480zM384 608v-512h32v512h-32zM512 608v-512h32v512h-32zM640 608v-512h32v512h-32zM448.094 832c-17.725 0-32.094-14.204-32.094-32v-32h224v32c0 17.673-14.012 32-32.094 32h-159.813z" />
<glyph unicode="&#xe933;" glyph-name="trash-can1" d="M672 768h128v-32h-544v32h128v32c0 35.593 28.616 64 63.917 64h160.167c35.249 0 63.917-28.654 63.917-64v-32zM256 704h544v-607.956c0-53.066-42.982-96.044-96.004-96.044h-351.992c-53.317 0-96.004 43.001-96.004 96.044v607.956zM384 608v-512h32v512h-32zM512 608v-512h32v512h-32zM640 608v-512h32v512h-32zM448.094 832c-17.725 0-32.094-14.204-32.094-32v-32h224v32c0 17.673-14.012 32-32.094 32h-159.813z" />
<glyph unicode="&#xe934;" glyph-name="trash-can2" d="M736 736h128v-32h-64v-607.781c0-53.467-42.982-96.219-96.004-96.219h-351.992c-53.317 0-96.004 43.079-96.004 96.219v607.781h-64v32h192v63.844c0 35.551 28.616 64.156 63.917 64.156h160.167c35.249 0 63.917-28.724 63.917-64.156v-63.844h64zM288 704v-608.174c0-35.25 28.589-63.826 63.74-63.826h352.519c35.203 0 63.74 28.875 63.74 63.826v608.174h-480zM384 640v-544h32v544h-32zM512 640v-544h32v544h-32zM640 640v-544h32v544h-32zM448.094 832c-17.725 0-32.094-14.165-32.094-31.967v-64.033h224v64.033c0 17.655-14.012 31.967-32.094 31.967h-159.813z" />
<glyph unicode="&#xe935;" glyph-name="trash-can3" d="M736 736h128v-32h-64v-607.781c0-53.467-42.982-96.219-96.004-96.219h-351.992c-53.317 0-96.004 43.079-96.004 96.219v607.781h-64v32h192v63.844c0 35.551 28.616 64.156 63.917 64.156h160.167c35.249 0 63.917-28.724 63.917-64.156v-63.844h64zM384 640v-544h32v544h-32zM512 640v-544h32v544h-32zM640 640v-544h32v544h-32zM448.094 832c-17.725 0-32.094-14.165-32.094-31.967v-64.033h224v64.033c0 17.655-14.012 31.967-32.094 31.967h-159.813z" />
<glyph unicode="&#xe936;" glyph-name="information" d="M544 288v160h-96v-32h64v-128h-64v-32h160v32h-64zM528 128v0 0c-167.895 0-304 136.105-304 304s136.105 304 304 304c167.895 0 304-136.105 304-304s-136.105-304-304-304zM528 160c150.221 0 272 121.779 272 272s-121.779 272-272 272c-150.221 0-272-121.779-272-272s121.779-272 272-272v0 0zM528 512c26.51 0 48 21.49 48 48s-21.49 48-48 48c-26.51 0-48-21.49-48-48s21.49-48 48-48v0 0z" />
<glyph unicode="&#xe937;" glyph-name="information1" d="M528 128v0c-167.895 0-304 136.105-304 304s136.105 304 304 304c167.895 0 304-136.105 304-304s-136.105-304-304-304zM544 288v160h-96v-32h64v-128h-64v-32h160v32h-64zM528 512c26.51 0 48 21.49 48 48s-21.49 48-48 48c-26.51 0-48-21.49-48-48s21.49-48 48-48v0z" />
<glyph unicode="&#xe938;" glyph-name="information2" d="M544 256v224h-96v-32h64v-192h-64v-32h160v32h-64zM528 32v0 0c-220.914 0-400 179.086-400 400s179.086 400 400 400c220.914 0 400-179.086 400-400s-179.086-400-400-400zM528 64c203.241 0 368 164.759 368 368s-164.759 368-368 368c-203.241 0-368-164.759-368-368s164.759-368 368-368v0 0zM528 544c26.51 0 48 21.49 48 48s-21.49 48-48 48c-26.51 0-48-21.49-48-48s21.49-48 48-48v0 0z" />
<glyph unicode="&#xe939;" glyph-name="information3" d="M528 32v0c-220.914 0-400 179.086-400 400s179.086 400 400 400c220.914 0 400-179.086 400-400s-179.086-400-400-400zM544 256v224h-96v-32h64v-192h-64v-32h160v32h-64zM528 544c26.51 0 48 21.49 48 48s-21.49 48-48 48c-26.51 0-48-21.49-48-48s21.49-48 48-48v0z" />
<glyph unicode="&#xe93a;" glyph-name="book" d="M544 672h-192v-608h448v608h-256zM832 32h-544.186c-52.828 0-95.814 42.973-95.814 95.983v624.017c0 44.491 35.711 80 79.762 80h560.238v-32h-16.15c-26.183 0-47.85-21.49-47.85-48 0-26.694 21.423-48 47.85-48h16.15v-672zM320 64v608h-48.238c-17.899 0-34.439 5.932-47.762 15.945v-560.228c0-35.19 28.564-63.717 63.843-63.717h32.157zM271.788 800c-26.392 0-47.788-21.306-47.788-48 0-26.51 21.352-48 47.788-48h480.212c0 0-16 25.264-16 48.846s16 47.154 16 47.154h-480.212z" />
<glyph unicode="&#xe93b;" glyph-name="book1" d="M287.814 32c-52.828 0-95.814 42.973-95.814 95.983v624.017c0 44.491 35.711 80 79.762 80h560.238v-32h-16.15c-26.183 0-47.85-21.49-47.85-48 0-26.694 21.423-48 47.85-48h16.15v-672h-480v672h400c0 0-16 25.264-16 48.846s16 47.154 16 47.154h-480.212c-26.392 0-47.788-21.306-47.788-48 0-26.51 21.352-48 47.788-48h48.212v-672h-32.186z" />
<glyph unicode="&#xe93c;" glyph-name="book-bookmark" d="M832 32v672h-16.15c-26.427 0-47.85 21.306-47.85 48 0 26.51 21.667 48 47.85 48h16.15v32h-560.238c-44.052 0-79.762-35.509-79.762-80v-624.017c0-53.010 42.986-95.983 95.814-95.983h544.186zM800 672v-608h-448v608h128v-352l96 96 96-96v352h128zM320 64h-32.157c-35.279 0-63.843 28.527-63.843 63.717v560.228c13.323-10.013 29.864-15.945 47.762-15.945h48.238v-608zM271.788 800h480.212c0 0-16-23.572-16-47.154s16-48.846 16-48.846h-480.212c-26.436 0-47.788 21.49-47.788 48 0 26.694 21.395 48 47.788 48zM512 672h128v-275.199l-64 64-64-64v275.199z" />
<glyph unicode="&#xe93d;" glyph-name="book-bookmark1" d="M480 704h-128v-672h480v672h-16.15c-26.427 0-47.85 21.306-47.85 48 0 26.51 21.667 48 47.85 48h16.15v32h-560.238c-44.052 0-79.762-35.509-79.762-80v-624.017c0-53.010 42.986-95.983 95.814-95.983h32.186v672h-48.212c-26.436 0-47.788 21.49-47.788 48 0 26.694 21.395 48 47.788 48h480.212c0 0-16-23.572-16-47.154s16-48.846 16-48.846h-80v-384l-96 96-96-96v384zM512 704v-307.199l64 64 64-64v307.199h-128z" />
<glyph unicode="&#xe93e;" glyph-name="clipboard-edit" d="M846.183 539.189l-83.19 83.19-361.347-361.398 83.378-83.378 361.159 361.586zM868.797 561.83l55.334 55.399c12.479 12.494 12.387 32.803-0.153 45.309l-37.754 37.65c-12.564 12.529-32.807 12.627-45.33 0.102l-55.274-55.282 83.178-83.178zM380.919 236.454l-20.465-99.606 100.317 19.755-79.851 79.851zM704 352v-319.885c0-35.643-28.617-64.115-63.918-64.115h-480.165c-35.408 0-63.918 28.705-63.918 64.115v671.77c0 35.643 28.617 64.115 63.918 64.115h32.083c0.084 35.479 28.745 64 64.088 64h31.912c0.029 53.18 43.131 96 96.296 96h31.408c53.089 0 96.267-42.976 96.296-96h31.912c35.443 0 64.004-28.639 64.088-64v0h32.083c35.408 0 63.918-28.705 63.918-64.115v-95.885l114.563 114.563c25.366 25.366 65.641 25.232 90.565 0.309l37.744-37.744c24.846-24.846 24.785-65.471-0.309-90.565l-242.563-242.563zM672 576v127.902c0 17.727-14.551 32.098-31.999 32.098h-32.001c-0.084-35.479-28.745-64-64.088-64h-287.823c-35.443 0-64.004 28.639-64.088 64h-32.001c-17.672 0-31.999-14.045-31.999-32.098v-671.803c0-17.727 14.551-32.098 31.999-32.098h480.003c17.672 0 31.999 14.045 31.999 32.098v287.902l-192-192-160-32 32 160 320 320zM320 800h-64.142c-17.595 0-31.858-14.165-31.858-31.967v-32.067c0-17.655 14.235-31.967 31.858-31.967h288.283c17.595 0 31.858 14.165 31.858 31.967v32.067c0 17.655-14.235 31.967-31.858 31.967h-64.142v32.067c0 35.309-28.605 63.933-64.156 63.933h-31.688c-35.432 0-64.156-28.744-64.156-63.933v-32.067zM400 800c8.837 0 16 7.163 16 16s-7.163 16-16 16c-8.837 0-16-7.163-16-16s7.163-16 16-16v0 0z" />
<glyph unicode="&#xe93f;" glyph-name="clipboard-edit1" d="M846.183 539.189l-361.159-361.586-83.378 83.378 361.347 361.398 83.19-83.19zM868.797 561.83l-83.178 83.178 55.274 55.282c12.523 12.525 32.766 12.428 45.33-0.102l37.754-37.65c12.541-12.506 12.633-32.815 0.153-45.309l-55.334-55.399zM380.919 236.454l79.851-79.851-100.317-19.755 20.465 99.606zM704 608v95.885c0 35.41-28.51 64.115-63.918 64.115h-32.083c0-0.052 0-0.104 0-0.156v-31.688c0-35.551-28.693-64.156-64.088-64.156h-287.823c-35.495 0-64.088 28.724-64.088 64.156v31.688c0 0.052 0 0.104 0 0.156h-32.083c-35.301 0-63.918-28.472-63.918-64.115v-671.77c0-35.41 28.51-64.115 63.918-64.115h480.165c35.301 0 63.918 28.472 63.918 64.115v319.885l242.563 242.563c25.094 25.094 25.155 65.719 0.309 90.565l-37.744 37.744c-24.924 24.924-65.199 25.057-90.565-0.309l-114.563-114.563zM320 800v32.067c0 35.189 28.724 63.933 64.156 63.933h31.688c35.551 0 64.156-28.624 64.156-63.933v-32.067h64.142c17.624 0 31.858-14.312 31.858-31.967v-32.067c0-17.801-14.264-31.967-31.858-31.967h-288.283c-17.624 0-31.858 14.312-31.858 31.967v32.067c0 17.801 14.264 31.967 31.858 31.967h64.142zM400 800c8.837 0 16 7.163 16 16s-7.163 16-16 16c-8.837 0-16-7.163-16-16s7.163-16 16-16v0z" />
<glyph unicode="&#xe940;" glyph-name="clipboard-add" d="M672 128v96h32v-96h96v-32h-96v-96h-32v96h-96v32h96zM552.229 0h-328.312c-35.408 0-63.918 28.705-63.918 64.115v671.77c0 35.643 28.617 64.115 63.918 64.115h32.083c0.084 35.479 28.745 64 64.088 64h31.912c0.029 53.18 43.131 96 96.296 96h31.408c53.089 0 96.267-42.976 96.296-96h31.912c35.443 0 64.004-28.639 64.088-64v0h32.083c35.408 0 63.918-28.705 63.918-64.115v-467.076c56.987-29.131 96-88.414 96-156.809 0-97.202-78.798-176-176-176-54.654 0-103.489 24.912-135.771 64v0 0zM736 281.375v454.527c0 17.727-14.551 32.098-31.999 32.098h-32.001c-0.084-35.479-28.745-64-64.088-64h-287.823c-35.443 0-64.004 28.639-64.088 64h-32.001c-17.672 0-31.999-14.045-31.999-32.098v-671.803c0-17.727 14.551-32.098 31.999-32.098h307.192c-12.27 24.002-19.191 51.193-19.191 80 0 97.202 78.798 176 176 176 16.64 0 32.741-2.309 48-6.625v0 0zM384 832h-64.142c-17.595 0-31.858-14.165-31.858-31.967v-32.067c0-17.655 14.235-31.967 31.858-31.967h288.283c17.595 0 31.858 14.165 31.858 31.967v32.067c0 17.655-14.235 31.967-31.858 31.967h-64.142v32.067c0 35.309-28.605 63.933-64.156 63.933h-31.688c-35.432 0-64.156-28.744-64.156-63.933v-32.067zM464 832c8.837 0 16 7.163 16 16s-7.163 16-16 16c-8.837 0-16-7.163-16-16s7.163-16 16-16v0zM688-32c79.529 0 144 64.471 144 144s-64.471 144-144 144c-79.529 0-144-64.471-144-144s64.471-144 144-144v0z" />
<glyph unicode="&#xe941;" glyph-name="clipboard-add1" d="M672 96h-96v32h96v96h32v-96h96v-32h-96v-96h-32v96zM768 304.059v431.826c0 35.41-28.51 64.115-63.918 64.115h-32.083c0-0.052 0-0.104 0-0.156v-31.688c0-35.551-28.693-64.156-64.088-64.156h-287.823c-35.495 0-64.088 28.724-64.088 64.156v31.688c0 0.052 0 0.104 0 0.156h-32.083c-35.301 0-63.918-28.472-63.918-64.115v-671.77c0-35.41 28.51-64.115 63.918-64.115h288.781c-20.698 32.33-32.698 70.763-32.698 112 0 114.875 93.125 208 208 208 28.349 0 55.373-5.671 80-15.941v0zM384 832v32.067c0 35.189 28.724 63.933 64.156 63.933h31.688c35.551 0 64.156-28.624 64.156-63.933v-32.067h64.142c17.624 0 31.858-14.312 31.858-31.967v-32.067c0-17.801-14.264-31.967-31.858-31.967h-288.283c-17.624 0-31.858 14.312-31.858 31.967v32.067c0 17.801 14.264 31.967 31.858 31.967h64.142zM464 832c8.837 0 16 7.163 16 16s-7.163 16-16 16c-8.837 0-16-7.163-16-16s7.163-16 16-16v0zM688-64c97.202 0 176 78.798 176 176s-78.798 176-176 176c-97.202 0-176-78.798-176-176s78.798-176 176-176v0z" />
<glyph unicode="&#xe942;" glyph-name="clipboard-remove" d="M552.229 0h-328.312c-35.408 0-63.918 28.705-63.918 64.115v671.77c0 35.643 28.617 64.115 63.918 64.115h32.083c0.084 35.479 28.745 64 64.088 64h31.912c0.029 53.18 43.131 96 96.296 96h31.408c53.089 0 96.267-42.976 96.296-96h31.912c35.443 0 64.004-28.639 64.088-64v0h32.083c35.408 0 63.918-28.705 63.918-64.115v-467.076c56.987-29.131 96-88.414 96-156.809 0-97.202-78.798-176-176-176-54.654 0-103.489 24.912-135.771 64v0 0zM736 281.375v454.527c0 17.727-14.551 32.098-31.999 32.098h-32.001c-0.084-35.479-28.745-64-64.088-64h-287.823c-35.443 0-64.004 28.639-64.088 64h-32.001c-17.672 0-31.999-14.045-31.999-32.098v-671.803c0-17.727 14.551-32.098 31.999-32.098h307.192c-12.27 24.002-19.191 51.193-19.191 80 0 97.202 78.798 176 176 176 16.64 0 32.741-2.309 48-6.625v0 0zM384 832h-64.142c-17.595 0-31.858-14.165-31.858-31.967v-32.067c0-17.655 14.235-31.967 31.858-31.967h288.283c17.595 0 31.858 14.165 31.858 31.967v32.067c0 17.655-14.235 31.967-31.858 31.967h-64.142v32.067c0 35.309-28.605 63.933-64.156 63.933h-31.688c-35.432 0-64.156-28.744-64.156-63.933v-32.067zM464 832c8.837 0 16 7.163 16 16s-7.163 16-16 16c-8.837 0-16-7.163-16-16s7.163-16 16-16v0zM688-32c79.529 0 144 64.471 144 144s-64.471 144-144 144c-79.529 0-144-64.471-144-144s64.471-144 144-144v0zM576 128v-32h224v32h-224z" />
<glyph unicode="&#xe943;" glyph-name="clipboard-remove1" d="M768 304.059v431.826c0 35.41-28.51 64.115-63.918 64.115h-32.083c0-0.052 0-0.104 0-0.156v-31.688c0-35.551-28.693-64.156-64.088-64.156h-287.823c-35.495 0-64.088 28.724-64.088 64.156v31.688c0 0.052 0 0.104 0 0.156h-32.083c-35.301 0-63.918-28.472-63.918-64.115v-671.77c0-35.41 28.51-64.115 63.918-64.115h288.781c-20.698 32.33-32.698 70.763-32.698 112 0 114.875 93.125 208 208 208 28.349 0 55.373-5.671 80-15.941v0zM384 832v32.067c0 35.189 28.724 63.933 64.156 63.933h31.688c35.551 0 64.156-28.624 64.156-63.933v-32.067h64.142c17.624 0 31.858-14.312 31.858-31.967v-32.067c0-17.801-14.264-31.967-31.858-31.967h-288.283c-17.624 0-31.858 14.312-31.858 31.967v32.067c0 17.801 14.264 31.967 31.858 31.967h64.142zM464 832c8.837 0 16 7.163 16 16s-7.163 16-16 16c-8.837 0-16-7.163-16-16s7.163-16 16-16v0zM688-64v0c-97.202 0-176 78.798-176 176s78.798 176 176 176c97.202 0 176-78.798 176-176s-78.798-176-176-176zM576 128v-32h224v32h-224z" />
<glyph unicode="&#xe944;" glyph-name="clipboard" d="M416 800v32.067c0 35.189 28.724 63.933 64.156 63.933h31.688c35.551 0 64.156-28.624 64.156-63.933v-32.067h64.142c17.624 0 31.858-14.312 31.858-31.967v-32.067c0-17.801-14.264-31.967-31.858-31.967h-288.283c-17.624 0-31.858 14.312-31.858 31.967v32.067c0 17.801 14.264 31.967 31.858 31.967h64.142zM384 832h-31.912c-35.343 0-64.004-28.521-64.088-64h-32.083c-35.301 0-63.918-28.472-63.918-64.115v-671.77c0-35.41 28.51-64.115 63.918-64.115h480.165c35.301 0 63.918 28.472 63.918 64.115v671.77c0 35.41-28.51 64.115-63.918 64.115h-32.083c-0.084 35.361-28.645 64-64.088 64h-31.912c-0.029 53.024-43.207 96-96.296 96h-31.408c-53.165 0-96.267-42.82-96.296-96v0 0zM704 736h32.001c17.448 0 31.999-14.371 31.999-32.098v-671.803c0-18.053-14.326-32.098-31.999-32.098h-480.003c-17.448 0-31.999 14.371-31.999 32.098v671.803c0 18.053 14.326 32.098 31.999 32.098h32.001c0.084-35.361 28.645-64 64.088-64h287.823c35.343 0 64.004 28.521 64.088 64v0 0zM496 800c8.837 0 16 7.163 16 16s-7.163 16-16 16c-8.837 0-16-7.163-16-16s7.163-16 16-16v0z" />
<glyph unicode="&#xe945;" glyph-name="clipboard1" d="M416 800v32.067c0 35.189 28.724 63.933 64.156 63.933h31.688c35.551 0 64.156-28.624 64.156-63.933v-32.067h64.142c17.624 0 31.858-14.312 31.858-31.967v-32.067c0-17.801-14.264-31.967-31.858-31.967h-288.283c-17.624 0-31.858 14.312-31.858 31.967v32.067c0 17.801 14.264 31.967 31.858 31.967h64.142zM704 768h32.083c35.408 0 63.918-28.705 63.918-64.115v-671.77c0-35.643-28.617-64.115-63.918-64.115h-480.165c-35.408 0-63.918 28.705-63.918 64.115v671.77c0 35.643 28.617 64.115 63.918 64.115h32.083c0-0.052 0-0.104 0-0.156v-31.688c0-35.432 28.593-64.156 64.088-64.156h287.823c35.395 0 64.088 28.605 64.088 64.156v31.688c0 0.052 0 0.104 0 0.156v0 0zM496 800c8.837 0 16 7.163 16 16s-7.163 16-16 16c-8.837 0-16-7.163-16-16s7.163-16 16-16v0z" />
<glyph unicode="&#xe946;" glyph-name="clipboard-download" d="M480 190.4l-104 104-24-24 144-144 144 144-24 24-104-104v353.6h-32v-353.6zM416 800v32.067c0 35.189 28.724 63.933 64.156 63.933h31.688c35.551 0 64.156-28.624 64.156-63.933v-32.067h64.142c17.624 0 31.858-14.312 31.858-31.967v-32.067c0-17.801-14.264-31.967-31.858-31.967h-288.283c-17.624 0-31.858 14.312-31.858 31.967v32.067c0 17.801 14.264 31.967 31.858 31.967h64.142zM384 832h-31.912c-35.343 0-64.004-28.521-64.088-64h-32.083c-35.301 0-63.918-28.472-63.918-64.115v-671.77c0-35.41 28.51-64.115 63.918-64.115h480.165c35.301 0 63.918 28.472 63.918 64.115v671.77c0 35.41-28.51 64.115-63.918 64.115h-32.083c-0.084 35.361-28.645 64-64.088 64h-31.912c-0.029 53.024-43.207 96-96.296 96h-31.408c-53.165 0-96.267-42.82-96.296-96v0 0zM704 736h32.001c17.448 0 31.999-14.371 31.999-32.098v-671.803c0-18.053-14.326-32.098-31.999-32.098h-480.003c-17.448 0-31.999 14.371-31.999 32.098v671.803c0 18.053 14.326 32.098 31.999 32.098h32.001c0.084-35.361 28.645-64 64.088-64h287.823c35.343 0 64.004 28.521 64.088 64v0 0zM496 800c8.837 0 16 7.163 16 16s-7.163 16-16 16c-8.837 0-16-7.163-16-16s7.163-16 16-16v0z" />
<glyph unicode="&#xe947;" glyph-name="clipboard-download1" d="M480 190.4l-104 104-24-24 144-144 144 144-24 24-104-104v353.6h-32v-353.6zM416 800v32.067c0 35.189 28.724 63.933 64.156 63.933h31.688c35.551 0 64.156-28.624 64.156-63.933v-32.067h64.142c17.624 0 31.858-14.312 31.858-31.967v-32.067c0-17.801-14.264-31.967-31.858-31.967h-288.283c-17.624 0-31.858 14.312-31.858 31.967v32.067c0 17.801 14.264 31.967 31.858 31.967h64.142zM704 768h32.083c35.408 0 63.918-28.705 63.918-64.115v-671.77c0-35.643-28.617-64.115-63.918-64.115h-480.165c-35.408 0-63.918 28.705-63.918 64.115v671.77c0 35.643 28.617 64.115 63.918 64.115h32.083c0-0.052 0-0.104 0-0.156v-31.688c0-35.432 28.593-64.156 64.088-64.156h287.823c35.395 0 64.088 28.605 64.088 64.156v31.688c0 0.052 0 0.104 0 0.156v0 0zM496 800c8.837 0 16 7.163 16 16s-7.163 16-16 16c-8.837 0-16-7.163-16-16s7.163-16 16-16v0z" />
<glyph unicode="&#xe948;" glyph-name="clipboard-upload" d="M480 320l-104-104-24 24 144 144 144-144-24-24-104 104v-320h-32v320zM416 800v32.067c0 35.189 28.724 63.933 64.156 63.933h31.688c35.551 0 64.156-28.624 64.156-63.933v-32.067h64.142c17.624 0 31.858-14.312 31.858-31.967v-32.067c0-17.801-14.264-31.967-31.858-31.967h-288.283c-17.624 0-31.858 14.312-31.858 31.967v32.067c0 17.801 14.264 31.967 31.858 31.967h64.142zM384 832h-31.912c-35.343 0-64.004-28.521-64.088-64h-32.083c-35.301 0-63.918-28.472-63.918-64.115v-671.77c0-35.41 28.51-64.115 63.918-64.115h480.165c35.301 0 63.918 28.472 63.918 64.115v671.77c0 35.41-28.51 64.115-63.918 64.115h-32.083c-0.084 35.361-28.645 64-64.088 64h-31.912c-0.029 53.024-43.207 96-96.296 96h-31.408c-53.165 0-96.267-42.82-96.296-96v0 0zM704 736h32.001c17.448 0 31.999-14.371 31.999-32.098v-671.803c0-18.053-14.326-32.098-31.999-32.098h-480.003c-17.448 0-31.999 14.371-31.999 32.098v671.803c0 18.053 14.326 32.098 31.999 32.098h32.001c0.084-35.361 28.645-64 64.088-64h287.823c35.343 0 64.004 28.521 64.088 64v0 0zM496 800c8.837 0 16 7.163 16 16s-7.163 16-16 16c-8.837 0-16-7.163-16-16s7.163-16 16-16v0z" />
<glyph unicode="&#xe949;" glyph-name="clipboard-upload1" d="M416 800v32.1c0 35.2 28.7 63.9 64.2 63.9h31.7c35.6 0 64.2-28.6 64.2-63.9v-32.1h64.1c17.6 0 31.9-14.3 31.9-32v-32c0-17.8-14.3-32-31.9-32h-288.3c-17.6 0-31.9 14.3-31.9 32v32c0 17.8 14.3 32 31.9 32h64.1zM496 800c8.8 0 16 7.2 16 16s-7.2 16-16 16-16-7.2-16-16 7.2-16 16-16v0zM736.1 768h-32.1v-31.8c0-35.6-28.7-64.2-64.1-64.2h-287.8c-35.5 0-64.1 28.7-64.1 64.2v31.8h-32.1c-35.3 0-63.9-28.5-63.9-64.1v-671.8c0-35.4 28.5-64.1 63.9-64.1h224.1v352l-104-104-24 24 144 144 144-144-24-24-104 104v-352h224.1c35.3 0 63.9 28.5 63.9 64.1v671.8c0 35.4-28.5 64.1-63.9 64.1z" />
<glyph unicode="&#xe94a;" glyph-name="clipboard-checked" d="M416 800v32.067c0 35.189 28.724 63.933 64.156 63.933h31.688c35.551 0 64.156-28.624 64.156-63.933v-32.067h64.142c17.624 0 31.858-14.312 31.858-31.967v-32.067c0-17.801-14.264-31.967-31.858-31.967h-288.283c-17.624 0-31.858 14.312-31.858 31.967v32.067c0 17.801 14.264 31.967 31.858 31.967h64.142zM384 832h-31.912c-35.343 0-64.004-28.521-64.088-64h-32.083c-35.301 0-63.918-28.472-63.918-64.115v-671.77c0-35.41 28.51-64.115 63.918-64.115h480.165c35.301 0 63.918 28.472 63.918 64.115v671.77c0 35.41-28.51 64.115-63.918 64.115h-32.083c-0.084 35.361-28.645 64-64.088 64h-31.912c-0.029 53.024-43.207 96-96.296 96h-31.408c-53.165 0-96.267-42.82-96.296-96v0 0zM704 736h32.001c17.448 0 31.999-14.371 31.999-32.098v-671.803c0-18.053-14.326-32.098-31.999-32.098h-480.003c-17.448 0-31.999 14.371-31.999 32.098v671.803c0 18.053 14.326 32.098 31.999 32.098h32.001c0.084-35.361 28.645-64 64.088-64h287.823c35.343 0 64.004 28.521 64.088 64v0 0zM496 800c8.837 0 16 7.163 16 16s-7.163 16-16 16c-8.837 0-16-7.163-16-16s7.163-16 16-16v0zM456.114 202.071l248.902 248.902-22.627 22.627-226.274-226.274-119.765 119.765-22.627-22.627 142.392-142.392z" />
<glyph unicode="&#xe94b;" glyph-name="clipboard-checked1" d="M416 800v32.067c0 35.189 28.724 63.933 64.156 63.933h31.688c35.551 0 64.156-28.624 64.156-63.933v-32.067h64.142c17.624 0 31.858-14.312 31.858-31.967v-32.067c0-17.801-14.264-31.967-31.858-31.967h-288.283c-17.624 0-31.858 14.312-31.858 31.967v32.067c0 17.801 14.264 31.967 31.858 31.967h64.142zM704 768h32.083c35.408 0 63.918-28.705 63.918-64.115v-671.77c0-35.643-28.617-64.115-63.918-64.115h-480.165c-35.408 0-63.918 28.705-63.918 64.115v671.77c0 35.643 28.617 64.115 63.918 64.115h32.083c0-0.052 0-0.104 0-0.156v-31.688c0-35.432 28.593-64.156 64.088-64.156h287.823c35.395 0 64.088 28.605 64.088 64.156v31.688c0 0.052 0 0.104 0 0.156v0 0zM496 800c8.837 0 16 7.163 16 16s-7.163 16-16 16c-8.837 0-16-7.163-16-16s7.163-16 16-16v0zM456.114 202.071l248.902 248.902-22.627 22.627-226.274-226.274-119.765 119.765-22.627-22.627 142.392-142.392z" />
<glyph unicode="&#xe94c;" glyph-name="clipboard-text" d="M416 800v32.067c0 35.189 28.724 63.933 64.156 63.933h31.688c35.551 0 64.156-28.624 64.156-63.933v-32.067h64.142c17.624 0 31.858-14.312 31.858-31.967v-32.067c0-17.801-14.264-31.967-31.858-31.967h-288.283c-17.624 0-31.858 14.312-31.858 31.967v32.067c0 17.801 14.264 31.967 31.858 31.967h64.142zM384 832h-31.912c-35.343 0-64.004-28.521-64.088-64h-32.083c-35.301 0-63.918-28.472-63.918-64.115v-671.77c0-35.41 28.51-64.115 63.918-64.115h480.165c35.301 0 63.918 28.472 63.918 64.115v671.77c0 35.41-28.51 64.115-63.918 64.115h-32.083c-0.084 35.361-28.645 64-64.088 64h-31.912c-0.029 53.024-43.207 96-96.296 96h-31.408c-53.165 0-96.267-42.82-96.296-96v0 0zM704 736h32.001c17.448 0 31.999-14.371 31.999-32.098v-671.803c0-18.053-14.326-32.098-31.999-32.098h-480.003c-17.448 0-31.999 14.371-31.999 32.098v671.803c0 18.053 14.326 32.098 31.999 32.098h32.001c0.084-35.361 28.645-64 64.088-64h287.823c35.343 0 64.004 28.521 64.088 64v0 0zM496 800c8.837 0 16 7.163 16 16s-7.163 16-16 16c-8.837 0-16-7.163-16-16s7.163-16 16-16v0zM288 544v-32h416v32h-416zM288 448v-32h416v32h-416zM288 352v-32h416v32h-416zM288 256v-32h416v32h-416zM288 160v-32h416v32h-416z" />
<glyph unicode="&#xe94d;" glyph-name="clipboard-text1" d="M416 800v32.067c0 35.189 28.724 63.933 64.156 63.933h31.688c35.551 0 64.156-28.624 64.156-63.933v-32.067h64.142c17.624 0 31.858-14.312 31.858-31.967v-32.067c0-17.801-14.264-31.967-31.858-31.967h-288.283c-17.624 0-31.858 14.312-31.858 31.967v32.067c0 17.801 14.264 31.967 31.858 31.967h64.142zM704 768h32.083c35.408 0 63.918-28.705 63.918-64.115v-671.77c0-35.643-28.617-64.115-63.918-64.115h-480.165c-35.408 0-63.918 28.705-63.918 64.115v671.77c0 35.643 28.617 64.115 63.918 64.115h32.083c0-0.052 0-0.104 0-0.156v-31.688c0-35.432 28.593-64.156 64.088-64.156h287.823c35.395 0 64.088 28.605 64.088 64.156v31.688c0 0.052 0 0.104 0 0.156v0 0zM496 800c8.837 0 16 7.163 16 16s-7.163 16-16 16c-8.837 0-16-7.163-16-16s7.163-16 16-16v0zM288 544v-32h416v32h-416zM288 448v-32h416v32h-416zM288 352v-32h416v32h-416zM288 256v-32h416v32h-416zM288 160v-32h416v32h-416z" />
<glyph unicode="&#xe94e;" glyph-name="clipboard-list" d="M416 800v32.067c0 35.189 28.724 63.933 64.156 63.933h31.688c35.551 0 64.156-28.624 64.156-63.933v-32.067h64.142c17.624 0 31.858-14.312 31.858-31.967v-32.067c0-17.801-14.264-31.967-31.858-31.967h-288.283c-17.624 0-31.858 14.312-31.858 31.967v32.067c0 17.801 14.264 31.967 31.858 31.967h64.142zM384 832h-31.912c-35.343 0-64.004-28.521-64.088-64h-32.083c-35.301 0-63.918-28.472-63.918-64.115v-671.77c0-35.41 28.51-64.115 63.918-64.115h480.165c35.301 0 63.918 28.472 63.918 64.115v671.77c0 35.41-28.51 64.115-63.918 64.115h-32.083c-0.084 35.361-28.645 64-64.088 64h-31.912c-0.029 53.024-43.207 96-96.296 96h-31.408c-53.165 0-96.267-42.82-96.296-96v0 0zM704 736h32.001c17.448 0 31.999-14.371 31.999-32.098v-671.803c0-18.053-14.326-32.098-31.999-32.098h-480.003c-17.448 0-31.999 14.371-31.999 32.098v671.803c0 18.053 14.326 32.098 31.999 32.098h32.001c0.084-35.361 28.645-64 64.088-64h287.823c35.343 0 64.004 28.521 64.088 64v0 0zM496 800c8.837 0 16 7.163 16 16s-7.163 16-16 16c-8.837 0-16-7.163-16-16s7.163-16 16-16v0zM448 512v-32h256v32h-256zM288 544h96v-96h-96v96zM320 512v-32h32v32h-32zM288 384h96v-96h-96v96zM320 352v-32h32v32h-32zM448 352v-32h256v32h-256zM288 224h96v-96h-96v96zM320 192v-32h32v32h-32zM448 192v-32h256v32h-256z" />
<glyph unicode="&#xe94f;" glyph-name="clipboard-list1" d="M416 800v32.067c0 35.189 28.724 63.933 64.156 63.933h31.688c35.551 0 64.156-28.624 64.156-63.933v-32.067h64.142c17.624 0 31.858-14.312 31.858-31.967v-32.067c0-17.801-14.264-31.967-31.858-31.967h-288.283c-17.624 0-31.858 14.312-31.858 31.967v32.067c0 17.801 14.264 31.967 31.858 31.967h64.142zM704 768h32.083c35.408 0 63.918-28.705 63.918-64.115v-671.77c0-35.643-28.617-64.115-63.918-64.115h-480.165c-35.408 0-63.918 28.705-63.918 64.115v671.77c0 35.643 28.617 64.115 63.918 64.115h32.083c0-0.052 0-0.104 0-0.156v-31.688c0-35.432 28.593-64.156 64.088-64.156h287.823c35.395 0 64.088 28.605 64.088 64.156v31.688c0 0.052 0 0.104 0 0.156v0 0zM496 800c8.837 0 16 7.163 16 16s-7.163 16-16 16c-8.837 0-16-7.163-16-16s7.163-16 16-16v0zM448 512v-32h256v32h-256zM288 544v-96h96v96h-96zM320 512v-32h32v32h-32zM288 384v-96h96v96h-96zM320 352v-32h32v32h-32zM448 352v-32h256v32h-256zM288 224v-96h96v96h-96zM320 192v-32h32v32h-32zM448 192v-32h256v32h-256z" />
<glyph unicode="&#xe950;" glyph-name="note" d="M192 608v-480.040c0-17.924 14.434-31.96 32.239-31.96h447.761v159.811c0 35.82 28.624 64.189 63.933 64.189h128.067v288h-672zM192 640h672v95.781c0 17.821-14.309 32.219-31.96 32.219h-608.080c-17.924 0-31.96-14.309-31.96-31.96v-96.040zM688 64h-463.997c-35.348 0-64.003 28.852-64.003 64.028v607.945c0 35.361 28.852 64.028 64.028 64.028h607.945c35.361 0 64.028-28.624 64.028-63.81v-448.19l-192-224h-16zM704 112l150.398 176h-118.503c-17.475 0-31.896-14.453-31.896-32.281v-143.719z" />
<glyph unicode="&#xe951;" glyph-name="note1" d="M160 608v-479.972c0-35.176 28.569-64.028 63.81-64.028h448.19v192.061c0 35.565 28.739 63.939 64.189 63.939h159.811v288h-736zM160 640v95.972c0 35.361 28.852 64.028 64.028 64.028h607.945c35.361 0 64.028-28.589 64.028-63.74v-96.26h-736zM704 64v191.906c0 17.725 14.431 32.094 31.705 32.094h160.295l-192-224z" />
<glyph unicode="&#xe952;" glyph-name="note-add" d="M800 160h-96v32h96v96h32v-96h96v-32h-96v-96h-32v96zM659.191 96h-435.231c-17.651 0-31.96 14.036-31.96 31.96v480.040h672v-262.625c-15.259 4.316-31.36 6.625-48 6.625-97.202 0-176-78.798-176-176 0-28.807 6.921-55.998 19.191-80v0zM896 332.809v403.163c0 35.176-28.666 64.028-64.028 64.028h-607.945c-35.176 0-64.028-28.666-64.028-64.028v-607.945c0-35.176 28.666-64.028 64.028-64.028h456.202c32.281-39.088 81.117-64 135.771-64 97.202 0 176 78.798 176 176 0 68.395-39.013 127.678-96 156.809v0zM192 640v96.040c0 17.651 14.036 31.96 31.96 31.96h608.080c17.651 0 31.96-14.036 31.96-31.96v-96.040h-672zM816 32v0 0c-79.529 0-144 64.471-144 144s64.471 144 144 144c79.529 0 144-64.471 144-144s-64.471-144-144-144z" />
<glyph unicode="&#xe953;" glyph-name="note-add1" d="M800 160h-96v32h96v96h32v-96h96v-32h-96v-96h-32v96zM640.698 64h-416.671c-35.361 0-64.028 28.852-64.028 64.028v479.972h736v-239.941c-24.627 10.27-51.651 15.941-80 15.941-114.875 0-208-93.125-208-208 0-41.237 12-79.67 32.698-112v0 0zM160 640v95.972c0 35.361 28.852 64.028 64.028 64.028h607.945c35.361 0 64.028-28.852 64.028-64.028v-95.972h-736zM816 0c97.202 0 176 78.798 176 176s-78.798 176-176 176c-97.202 0-176-78.798-176-176s78.798-176 176-176v0z" />
<glyph unicode="&#xe954;" glyph-name="note-remove" d="M659.191 96h-435.231c-17.651 0-31.96 14.036-31.96 31.96v480.040h672v-262.625c-15.259 4.316-31.36 6.625-48 6.625-97.202 0-176-78.798-176-176 0-28.807 6.921-55.998 19.191-80v0zM896 332.809v403.163c0 35.176-28.666 64.028-64.028 64.028h-607.945c-35.176 0-64.028-28.666-64.028-64.028v-607.945c0-35.176 28.666-64.028 64.028-64.028h456.202c32.281-39.088 81.117-64 135.771-64 97.202 0 176 78.798 176 176 0 68.395-39.013 127.678-96 156.809v0zM192 640v96.040c0 17.651 14.036 31.96 31.96 31.96h608.080c17.651 0 31.96-14.036 31.96-31.96v-96.040h-672zM816 32v0 0c-79.529 0-144 64.471-144 144s64.471 144 144 144c79.529 0 144-64.471 144-144s-64.471-144-144-144zM704 192v-32h224v32h-224z" />
<glyph unicode="&#xe955;" glyph-name="note-remove1" d="M640.698 64h-416.671c-35.361 0-64.028 28.852-64.028 64.028v479.972h736v-239.941c-24.627 10.27-51.651 15.941-80 15.941-114.875 0-208-93.125-208-208 0-41.237 12-79.67 32.698-112v0 0zM160 640v95.972c0 35.361 28.852 64.028 64.028 64.028h607.945c35.361 0 64.028-28.852 64.028-64.028v-95.972h-736zM816 0v0c-97.202 0-176 78.798-176 176s78.798 176 176 176c97.202 0 176-78.798 176-176s-78.798-176-176-176zM704 192v-32h224v32h-224z" />
<glyph unicode="&#xe956;" glyph-name="note-text" d="M192 608v-480.040c0-17.924 14.434-31.96 32.239-31.96h447.761v159.811c0 35.82 28.624 64.189 63.933 64.189h128.067v288h-672zM192 640h672v95.781c0 17.821-14.309 32.219-31.96 32.219h-608.080c-17.924 0-31.96-14.309-31.96-31.96v-96.040zM688 64h-463.997c-35.348 0-64.003 28.852-64.003 64.028v607.945c0 35.361 28.852 64.028 64.028 64.028h607.945c35.361 0 64.028-28.624 64.028-63.81v-448.19l-192-224h-16zM704 112l150.398 176h-118.503c-17.475 0-31.896-14.453-31.896-32.281v-143.719zM256 512v-32h544v32h-544zM256 416v-32h544v32h-544zM256 320v-32h352v32h-352zM256 224v-32h352v32h-352z" />
<glyph unicode="&#xe957;" glyph-name="note-text1" d="M160 608h736v-288h-159.811c-35.451 0-64.189-28.375-64.189-63.939v-192.061h-448.19c-35.241 0-63.81 28.852-63.81 64.028v479.972zM160 640v95.972c0 35.361 28.852 64.028 64.028 64.028h607.945c35.361 0 64.028-28.589 64.028-63.74v-96.26h-736zM704 64v191.906c0 17.725 14.431 32.094 31.705 32.094h160.295l-192-224zM256 512v-32h544v32h-544zM256 416v-32h544v32h-544zM256 320v-32h352v32h-352zM256 224v-32h352v32h-352z" />
<glyph unicode="&#xe958;" glyph-name="note-list" d="M688 64h-463.997c-35.348 0-64.003 28.852-64.003 64.028v607.945c0 35.361 28.852 64.028 64.028 64.028h607.945c35.361 0 64.028-28.624 64.028-63.81v-448.19l-192-224h-16zM192 608v-480.040c0-17.924 14.434-31.96 32.239-31.96h447.761v159.811c0 35.82 28.624 64.189 63.933 64.189h128.067v288h-672zM192 640h672v95.781c0 17.821-14.309 32.219-31.96 32.219h-608.080c-17.924 0-31.96-14.309-31.96-31.96v-96.040zM704 112l150.398 176h-118.503c-17.475 0-31.896-14.453-31.896-32.281v-143.719zM416 384v-32h224v32h-224zM256 416h96v-96h-96v96zM288 384v-32h32v32h-32zM416 512v-32h384v32h-384zM256 544h96v-96h-96v96zM288 512v-32h32v32h-32zM416 256v-32h192v32h-192zM256 288h96v-96h-96v96zM288 256v-32h32v32h-32z" />
<glyph unicode="&#xe959;" glyph-name="note-list1" d="M160 608h736v-288h-159.811c-35.451 0-64.189-28.375-64.189-63.939v-192.061h-448.19c-35.241 0-63.81 28.852-63.81 64.028v479.972zM160 640v95.972c0 35.361 28.852 64.028 64.028 64.028h607.945c35.361 0 64.028-28.589 64.028-63.74v-96.26h-736zM704 64v191.906c0 17.725 14.431 32.094 31.705 32.094h160.295l-192-224zM416 384v-32h224v32h-224zM256 416v-96h96v96h-96zM288 384v-32h32v32h-32zM416 512v-32h384v32h-384zM256 544v-96h96v96h-96zM288 512v-32h32v32h-32zM416 256v-32h192v32h-192zM256 288v-96h96v96h-96zM288 256v-32h32v32h-32z" />
<glyph unicode="&#xe95a;" glyph-name="note-checked" d="M192 608v-480.040c0-17.924 14.434-31.96 32.239-31.96h447.761v159.811c0 35.82 28.624 64.189 63.933 64.189h128.067v288h-672zM192 640h672v95.781c0 17.821-14.309 32.219-31.96 32.219h-608.080c-17.924 0-31.96-14.309-31.96-31.96v-96.040zM688 64h-463.997c-35.348 0-64.003 28.852-64.003 64.028v607.945c0 35.361 28.852 64.028 64.028 64.028h607.945c35.361 0 64.028-28.624 64.028-63.81v-448.19l-192-224h-16zM704 112l150.398 176h-118.503c-17.475 0-31.896-14.453-31.896-32.281v-143.719zM459.314 237.271l248.902 248.902-22.627 22.627-226.274-226.274-119.765 119.765-22.627-22.627 142.392-142.392z" />
<glyph unicode="&#xe95b;" glyph-name="note-checked1" d="M160 608h736v-288h-159.811c-35.451 0-64.189-28.375-64.189-63.939v-192.061h-448.19c-35.241 0-63.81 28.852-63.81 64.028v479.972zM160 640v95.972c0 35.361 28.852 64.028 64.028 64.028h607.945c35.361 0 64.028-28.589 64.028-63.74v-96.26h-736zM704 64v191.906c0 17.725 14.431 32.094 31.705 32.094h160.295l-192-224zM459.314 237.271l248.902 248.902-22.627 22.627-226.274-226.274-119.765 119.765-22.627-22.627 142.392-142.392z" />
<glyph unicode="&#xe95c;" glyph-name="note-important" d="M192 608v-480.040c0-17.924 14.434-31.96 32.239-31.96h447.761v159.811c0 35.82 28.624 64.189 63.933 64.189h128.067v288h-672zM192 640h672v95.781c0 17.821-14.309 32.219-31.96 32.219h-608.080c-17.924 0-31.96-14.309-31.96-31.96v-96.040zM688 64h-463.997c-35.348 0-64.003 28.852-64.003 64.028v607.945c0 35.361 28.852 64.028 64.028 64.028h607.945c35.361 0 64.028-28.624 64.028-63.81v-448.19l-192-224h-16zM704 112l150.398 176h-118.503c-17.475 0-31.896-14.453-31.896-32.281v-143.719zM480 544h96v-256h-96v256zM512 512v-192h32v192h-32zM480 256h96v-96h-96v96zM512 224v-32h32v32h-32z" />
<glyph unicode="&#xe95d;" glyph-name="note-important1" d="M160 608h736v-288h-159.811c-35.451 0-64.189-28.375-64.189-63.939v-192.061h-448.19c-35.241 0-63.81 28.852-63.81 64.028v479.972zM160 640v95.972c0 35.361 28.852 64.028 64.028 64.028h607.945c35.361 0 64.028-28.589 64.028-63.74v-96.26h-736zM704 64v191.906c0 17.725 14.431 32.094 31.705 32.094h160.295l-192-224zM512 512v-192h32v192h-32zM512 224v-32h32v32h-32z" />
<glyph unicode="&#xe95e;" glyph-name="notebook" d="M224 352h-32v32h32v96h-32v32h32v96h-32v32h32v96h-32v32h32v31.765c0 35.488 28.617 64.235 63.918 64.235h480.165c35.408 0 63.918-28.759 63.918-64.235v-735.531c0-35.488-28.617-64.235-63.918-64.235h-480.165c-35.408 0-63.918 28.759-63.918 64.235v31.765h-32v32h32v96h-32v32h32v96zM256 352v-96h32v-32h-32v-96h32v-32h-32v-32.145c0-17.593 14.551-31.855 31.999-31.855h480.003c17.672 0 31.999 14.568 31.999 31.855v736.291c0 17.593-14.551 31.855-31.999 31.855h-480.003c-17.672 0-31.999-14.568-31.999-31.855v-32.145h32v-32h-32v-96h32v-32h-32v-96h32v-32h-32v-96h32v-32h-32zM352 704v-32h352v32h-352zM384 576v-32h288v32h-288z" />
<glyph unicode="&#xe95f;" glyph-name="notebook1" d="M160 384h64v-32h-64v32zM160 512h64v-32h-64v32zM160 256h64v-32h-64v32zM160 128h64v-32h-64v32zM160 640h64v-32h-64v32zM160 768h64v-32h-64v32zM768.1 864h-480.2c-35.3 0-63.9-28.7-63.9-64.2v-31.8h64v-32h-64v-96h64v-32h-64v-96h64v-32h-64v-96h64v-32h-64v-96h64v-32h-64v-96h64v-32h-64v-31.8c0-35.5 28.5-64.2 63.9-64.2h480.2c35.3 0 63.9 28.7 63.9 64.2v735.6c0 35.4-28.5 64.2-63.9 64.2zM672 544h-288v32h288v-32zM704 672h-352v32h352v-32z" />
<glyph unicode="&#xe960;" glyph-name="notebook2" d="M224 352h-32v32h32v96h-32v32h32v96h-32v32h32v96h-32v32h32v31.765c0 35.488 28.617 64.235 63.918 64.235h480.165c35.408 0 63.918-28.759 63.918-64.235v-735.531c0-35.488-28.617-64.235-63.918-64.235h-480.165c-35.408 0-63.918 28.759-63.918 64.235v31.765h-32v32h32v96h-32v32h32v96zM256 352v-96h32v-32h-32v-96h32v-32h-32v-32.145c0-17.593 14.551-31.855 31.999-31.855h480.003c17.672 0 31.999 14.568 31.999 31.855v736.291c0 17.593-14.551 31.855-31.999 31.855h-480.003c-17.672 0-31.999-14.568-31.999-31.855v-32.145h32v-32h-32v-96h32v-32h-32v-96h32v-32h-32v-96h32v-32h-32zM384 704h288v-160h-288v160zM416 672v-96h224v96h-224z" />
<glyph unicode="&#xe961;" glyph-name="notebook3" d="M160 384h64v-32h-64v32zM160 128h64v-32h-64v32zM160 256h64v-32h-64v32zM160 512h64v-32h-64v32zM160 640h64v-32h-64v32zM160 768h64v-32h-64v32zM416 672h224v-96h-224v96zM768.1 864h-480.2c-35.3 0-63.9-28.7-63.9-64.2v-31.8h64v-32h-64v-96h64v-32h-64v-96h64v-32h-64v-96h64v-32h-64v-96h64v-32h-64v-96h64v-32h-64v-31.8c0-35.5 28.5-64.2 63.9-64.2h480.2c35.3 0 63.9 28.7 63.9 64.2v735.6c0 35.4-28.5 64.2-63.9 64.2zM672 544h-288v160h288v-160z" />
<glyph unicode="&#xe962;" glyph-name="notebook4" d="M704 832h64.001c17.448 0 31.999-14.262 31.999-31.855v-736.291c0-17.286-14.326-31.855-31.999-31.855h-480.003c-17.448 0-31.999 14.262-31.999 31.855v32.145h32v32h-32v96h32v32h-32v96h32v32h-32v96h32v32h-32v96h32v32h-32v96h32v32h-32v32.145c0 17.286 14.326 31.855 31.999 31.855h224.001v-384l96 96 96-96v384zM224 352v-96h-32v-32h32v-96h-32v-32h32v-31.765c0-35.476 28.51-64.235 63.918-64.235h480.165c35.301 0 63.918 28.747 63.918 64.235v735.531c0 35.476-28.51 64.235-63.918 64.235h-480.165c-35.301 0-63.918-28.747-63.918-64.235v-31.765h-32v-32h32v-96h-32v-32h32v-96h-32v-32h32v-96h-32v-32h32zM544 832h128v-307.199l-64 64-64-64v307.199z" />
<glyph unicode="&#xe963;" glyph-name="notebook5" d="M704 864h64.082c35.408 0 63.918-28.759 63.918-64.235v-735.531c0-35.488-28.617-64.235-63.918-64.235h-480.165c-35.408 0-63.918 28.759-63.918 64.235v735.531c0 35.488 28.617 64.235 63.918 64.235h224.082v-416l96 96 96-96v416zM160 640v-32h64v32h-64zM160 512v-32h64v32h-64zM160 768v-32h64v32h-64zM160 256v-32h64v32h-64zM160 128v-32h64v32h-64zM160 384v-32h64v32h-64zM224 640v-32h64v32h-64zM224 512v-32h64v32h-64zM224 768v-32h64v32h-64zM224 256v-32h64v32h-64zM224 128v-32h64v32h-64zM224 384v-32h64v32h-64zM544 864v-339.199l64 64 64-64v339.199h-128z" />
<glyph unicode="&#xe964;" glyph-name="notebook6" d="M672 832v32h32v-32h32.082c35.408 0 63.918-28.705 63.918-64.115v-671.77c0-35.643-28.617-64.115-63.918-64.115h-480.165c-35.408 0-63.918 28.705-63.918 64.115v671.77c0 35.643 28.617 64.115 63.918 64.115h32.082v32h32v-32h96v32h32v-32h96v32h32v-32h96zM672 800h-96v-32h-32v32h-96v-32h-32v32h-96v-32h-32v32h-32.001c-17.672 0-31.999-14.045-31.999-32.098v-671.803c0-17.727 14.551-32.098 31.999-32.098h480.003c17.672 0 31.999 14.045 31.999 32.098v671.803c0 17.727-14.551 32.098-31.999 32.098h-32.001v-32h-32v32z" />
<glyph unicode="&#xe965;" glyph-name="notebook7" d="M416 896h32v-64h-32v64zM544 896h32v-64h-32v64zM672 896h32v-64h-32v64zM288 896h32v-64h-32v64zM736.1 832c0 0-28.1 0-32.1 0v-64h-32v64h-96v-64h-32v64h-96v-64h-32v64h-96v-64h-32v64c-4 0-32.1 0-32.1 0-35.3 0-63.9-28.5-63.9-64.1v-671.8c0-35.4 28.5-64.1 63.9-64.1h480.2c35.3 0 63.9 28.5 63.9 64.1v671.8c0 35.4-28.5 64.1-63.9 64.1z" />
<glyph unicode="&#xe966;" glyph-name="notebook-text" d="M672 832v32h32v-32h32.082c35.408 0 63.918-28.705 63.918-64.115v-671.77c0-35.643-28.617-64.115-63.918-64.115h-480.165c-35.408 0-63.918 28.705-63.918 64.115v671.77c0 35.643 28.617 64.115 63.918 64.115h32.082v32h32v-32h96v32h32v-32h96v32h32v-32h96zM672 800h-96v-32h-32v32h-96v-32h-32v32h-96v-32h-32v32h-32.001c-17.672 0-31.999-14.045-31.999-32.098v-671.803c0-17.727 14.551-32.098 31.999-32.098h480.003c17.672 0 31.999 14.045 31.999 32.098v671.803c0 17.727-14.551 32.098-31.999 32.098h-32.001v-32h-32v32zM288 672v-32h416v32h-416zM288 576v-32h416v32h-416zM288 480v-32h416v32h-416zM288 384v-32h416v32h-416zM288 288v-32h416v32h-416zM288 192v-32h416v32h-416z" />
<glyph unicode="&#xe967;" glyph-name="notebook-text1" d="M736.1 832c0 0-28.1 0-32.1 0v-64h-32v64h-96v-64h-32v64h-96v-64h-32v64h-96v-64h-32v64c-4 0-32.1 0-32.1 0-35.3 0-63.9-28.5-63.9-64.1v-671.8c0-35.4 28.5-64.1 63.9-64.1h480.2c35.3 0 63.9 28.5 63.9 64.1v671.8c0 35.4-28.5 64.1-63.9 64.1zM704 160h-416v32h416v-32zM704 256h-416v32h416v-32zM704 352h-416v32h416v-32zM704 448h-416v32h416v-32zM704 544h-416v32h416v-32zM704 640h-416v32h416v-32zM288 896h32v-64h-32v64zM416 896h32v-64h-32v64zM544 896h32v-64h-32v64zM672 896h32v-64h-32v64z" />
<glyph unicode="&#xe968;" glyph-name="notebook-list" d="M672 832v32h32v-32h32.082c35.408 0 63.918-28.705 63.918-64.115v-671.77c0-35.643-28.617-64.115-63.918-64.115h-480.165c-35.408 0-63.918 28.705-63.918 64.115v671.77c0 35.643 28.617 64.115 63.918 64.115h32.082v32h32v-32h96v32h32v-32h96v32h32v-32h96zM672 800h-96v-32h-32v32h-96v-32h-32v32h-96v-32h-32v32h-32.001c-17.672 0-31.999-14.045-31.999-32.098v-671.803c0-17.727 14.551-32.098 31.999-32.098h480.003c17.672 0 31.999 14.045 31.999 32.098v671.803c0 17.727-14.551 32.098-31.999 32.098h-32.001v-32h-32v32zM448 576v-32h256v32h-256zM288 608h96v-96h-96v96zM320 576v-32h32v32h-32zM288 448h96v-96h-96v96zM320 416v-32h32v32h-32zM448 416v-32h256v32h-256zM288 288h96v-96h-96v96zM320 256v-32h32v32h-32zM448 256v-32h256v32h-256z" />
<glyph unicode="&#xe969;" glyph-name="notebook-list1" d="M288 896h32v-64h-32v64zM416 896h32v-64h-32v64zM544 896h32v-64h-32v64zM672 896h32v-64h-32v64zM320 256h32v-32h-32v32zM320 416h32v-32h-32v32zM320 576h32v-32h-32v32zM736.1 832c0 0-28.1 0-32.1 0v-64h-32v64h-96v-64h-32v64h-96v-64h-32v64h-96v-64h-32v64c-4 0-32.1 0-32.1 0-35.3 0-63.9-28.5-63.9-64.1v-671.8c0-35.4 28.5-64.1 63.9-64.1h480.2c35.3 0 63.9 28.5 63.9 64.1v671.8c0 35.4-28.5 64.1-63.9 64.1zM384 192h-96v96h96v-96zM384 352h-96v96h96v-96zM384 512h-96v96h96v-96zM704 224h-256v32h256v-32zM704 384h-256v32h256v-32zM704 544h-256v32h256v-32z" />
<glyph unicode="&#xe96a;" glyph-name="document" d="M624 864h16l192-224v-576.295c0-34.963-28.617-63.705-63.918-63.705h-480.165c-35.408 0-63.918 28.759-63.918 64.235v735.531c0 35.488 28.693 64.235 64.088 64.235h335.912zM608 832h-320.142c-17.595 0-31.858-14.568-31.858-31.855v-736.291c0-17.593 14.551-31.855 31.999-31.855h480.003c17.672 0 31.999 14.238 31.999 31.789v544.211h-128.067c-35.309 0-63.933 28.37-63.933 64.189v159.811zM640 816v-143.719c0-17.828 14.421-32.281 31.896-32.281h118.503l-150.398 176z" />
<glyph unicode="&#xe96b;" glyph-name="document1" d="M608 864h-319.727c-35.497 0-64.273-28.747-64.273-64.235v-735.531c0-35.476 28.51-64.235 63.918-64.235h480.165c35.301 0 63.918 28.51 63.918 63.918v544.082h-159.811c-35.451 0-64.189 28.375-64.189 63.939v192.061zM640 864v-191.906c0-17.725 14.431-32.094 31.705-32.094h160.295l-192 224z" />
<glyph unicode="&#xe96c;" glyph-name="document-text" d="M624 864h16l192-224v-576.295c0-34.963-28.617-63.705-63.918-63.705h-480.165c-35.408 0-63.918 28.759-63.918 64.235v735.531c0 35.488 28.693 64.235 64.088 64.235h335.912zM608 832h-320.142c-17.595 0-31.858-14.568-31.858-31.855v-736.291c0-17.593 14.551-31.855 31.999-31.855h480.003c17.672 0 31.999 14.238 31.999 31.789v544.211h-128.067c-35.309 0-63.933 28.37-63.933 64.189v159.811zM640 816v-143.719c0-17.828 14.421-32.281 31.896-32.281h118.503l-150.398 176zM320 640v-32h224v32h-224zM320 736v-32h224v32h-224zM320 544v-32h416v32h-416zM320 448v-32h416v32h-416zM320 352v-32h416v32h-416zM320 256v-32h416v32h-416zM320 160v-32h416v32h-416z" />
<glyph unicode="&#xe96d;" glyph-name="document-text1" d="M608 864v-192.061c0-35.565 28.739-63.939 64.189-63.939h159.811v-544.082c0-35.408-28.617-63.918-63.918-63.918h-480.165c-35.408 0-63.918 28.759-63.918 64.235v735.531c0 35.488 28.776 64.235 64.273 64.235h319.727zM640 864v-191.906c0-17.725 14.431-32.094 31.705-32.094h160.295l-192 224zM320 640v-32h224v32h-224zM320 736v-32h224v32h-224zM320 544v-32h416v32h-416zM320 448v-32h416v32h-416zM320 352v-32h416v32h-416zM320 256v-32h416v32h-416zM320 160v-32h416v32h-416z" />
<glyph unicode="&#xe96e;" glyph-name="document-text2" d="M624 864h16l192-224v-576.295c0-34.963-28.617-63.705-63.918-63.705h-480.165c-35.408 0-63.918 28.759-63.918 64.235v735.531c0 35.488 28.693 64.235 64.088 64.235h335.912zM608 832h-320.142c-17.595 0-31.858-14.568-31.858-31.855v-736.291c0-17.593 14.551-31.855 31.999-31.855h480.003c17.672 0 31.999 14.238 31.999 31.789v544.211h-128.067c-35.309 0-63.933 28.37-63.933 64.189v159.811zM640 816v-143.719c0-17.828 14.421-32.281 31.896-32.281h118.503l-150.398 176zM320 640v-32h160v32h-160zM320 736v-32h224v32h-224zM320 544v-32h416v32h-416zM320 448v-32h320v32h-320zM320 352v-32h416v32h-416zM320 256v-32h288v32h-288zM320 160v-32h416v32h-416z" />
<glyph unicode="&#xe96f;" glyph-name="document-text3" d="M608 864v-192.061c0-35.565 28.739-63.939 64.189-63.939h159.811v-544.082c0-35.408-28.617-63.918-63.918-63.918h-480.165c-35.408 0-63.918 28.759-63.918 64.235v735.531c0 35.488 28.776 64.235 64.273 64.235h319.727zM320 640v-32h160v32h-160zM320 736v-32h224v32h-224zM320 544v-32h416v32h-416zM320 448v-32h320v32h-320zM320 352v-32h416v32h-416zM320 256v-32h288v32h-288zM320 160v-32h416v32h-416zM640 864v-191.906c0-17.725 14.431-32.094 31.705-32.094h160.295l-192 224z" />
<glyph unicode="&#xe970;" glyph-name="document-download" d="M512 158.4l-104 104-24-24 144-144 144 144-24 24-104-104v353.6h-32v-353.6zM624 864h16l192-224v-576.295c0-34.963-28.617-63.705-63.918-63.705h-480.165c-35.408 0-63.918 28.759-63.918 64.235v735.531c0 35.488 28.693 64.235 64.088 64.235h335.912zM608 832h-320.142c-17.595 0-31.858-14.568-31.858-31.855v-736.291c0-17.593 14.551-31.855 31.999-31.855h480.003c17.672 0 31.999 14.238 31.999 31.789v544.211h-128.067c-35.309 0-63.933 28.37-63.933 64.189v159.811zM640 816v-143.719c0-17.828 14.421-32.281 31.896-32.281h118.503l-150.398 176z" />
<glyph unicode="&#xe971;" glyph-name="document-download1" d="M512 158.4v353.6h32v-353.6l104 104 24-24-144-144-144 144 24 24 104-104zM608 864h-319.727c-35.497 0-64.273-28.747-64.273-64.235v-735.531c0-35.476 28.51-64.235 63.918-64.235h480.165c35.301 0 63.918 28.51 63.918 63.918v544.082h-159.811c-35.451 0-64.189 28.375-64.189 63.939v192.061zM640 864v-191.906c0-17.725 14.431-32.094 31.705-32.094h160.295l-192 224z" />
<glyph unicode="&#xe972;" glyph-name="document-upload" d="M512 32h-224.001c-17.448 0-31.999 14.262-31.999 31.855v736.291c0 17.286 14.264 31.855 31.858 31.855h320.142v-159.811c0-35.82 28.624-64.189 63.933-64.189h128.067v-544.211c0-17.55-14.326-31.789-31.999-31.789h-224.001v320l104-104 24 24-144 144-144-144 24-24 104 104v-320zM624 864h-335.912c-35.395 0-64.088-28.747-64.088-64.235v-735.531c0-35.476 28.51-64.235 63.918-64.235h480.165c35.301 0 63.918 28.743 63.918 63.705v576.295l-192 224h-16zM640 816l150.398-176h-118.503c-17.475 0-31.896 14.453-31.896 32.281v143.719z" />
<glyph unicode="&#xe973;" glyph-name="document-upload1" d="M512 0h-224.082c-35.408 0-63.918 28.759-63.918 64.235v735.531c0 35.488 28.776 64.235 64.273 64.235h319.727v-192.061c0-35.565 28.739-63.939 64.189-63.939h159.811v-544.082c0-35.408-28.617-63.918-63.918-63.918h-224.082v352l104-104 24 24-144 144-144-144 24-24 104 104v-352zM640 864v-191.906c0-17.725 14.431-32.094 31.705-32.094h160.295l-192 224z" />
<glyph unicode="&#xe974;" glyph-name="document-bookmark" d="M512 832h96v-159.811c0-35.82 28.624-64.189 63.933-64.189h128.067v-544.211c0-17.55-14.326-31.789-31.999-31.789h-480.003c-17.448 0-31.999 14.262-31.999 31.855v736.291c0 17.286 14.264 31.855 31.858 31.855h32.142v-352l96 96 96-96v352zM624 864h-335.912c-35.395 0-64.088-28.747-64.088-64.235v-735.531c0-35.476 28.51-64.235 63.918-64.235h480.165c35.301 0 63.918 28.743 63.918 63.705v576.295l-192 224h-16zM640 816l150.398-176h-118.503c-17.475 0-31.896 14.453-31.896 32.281v143.719zM352 832h128v-275.199l-64 64-64-64v275.199z" />
<glyph unicode="&#xe975;" glyph-name="document-bookmark1" d="M512 864h96v-192.061c0-35.565 28.739-63.939 64.189-63.939h159.811v-544.082c0-35.408-28.617-63.918-63.918-63.918h-480.165c-35.408 0-63.918 28.759-63.918 64.235v735.531c0 35.488 28.776 64.235 64.273 64.235h31.727v-384l96 96 96-96v384zM352 864v-307.199l64 64 64-64v307.199h-128zM640 864v-191.906c0-17.725 14.431-32.094 31.705-32.094h160.295l-192 224z" />
<glyph unicode="&#xe976;" glyph-name="document-diagrams" d="M608 384v96h-160v-160h-128v-192h416v256h-128zM624 864h16l192-224v-576.295c0-34.963-28.617-63.705-63.918-63.705h-480.165c-35.408 0-63.918 28.759-63.918 64.235v735.531c0 35.488 28.693 64.235 64.088 64.235h335.912zM608 832h-320.142c-17.595 0-31.858-14.568-31.858-31.855v-736.291c0-17.593 14.551-31.855 31.999-31.855h480.003c17.672 0 31.999 14.238 31.999 31.789v544.211h-128.067c-35.309 0-63.933 28.37-63.933 64.189v159.811zM640 816v-143.719c0-17.828 14.421-32.281 31.896-32.281h118.503l-150.398 176zM352 288h96v-128h-96v128zM480 448h96v-288h-96v288zM608 352h96v-192h-96v192z" />
<glyph unicode="&#xe977;" glyph-name="document-diagrams1" d="M608 864v-192.061c0-35.565 28.739-63.939 64.189-63.939h159.811v-544.082c0-35.408-28.617-63.918-63.918-63.918h-480.165c-35.408 0-63.918 28.759-63.918 64.235v735.531c0 35.488 28.776 64.235 64.273 64.235h319.727zM640 864v-191.906c0-17.725 14.431-32.094 31.705-32.094h160.295l-192 224zM352 288v-128h96v128h-96zM480 448v-288h96v288h-96zM608 352v-192h96v192h-96z" />
<glyph unicode="&#xe978;" glyph-name="document-recording" d="M624 864h16l192-224v-576.295c0-34.963-28.617-63.705-63.918-63.705h-480.165c-35.408 0-63.918 28.759-63.918 64.235v735.531c0 35.488 28.693 64.235 64.088 64.235h335.912zM608 832h-320.142c-17.595 0-31.858-14.568-31.858-31.855v-736.291c0-17.593 14.551-31.855 31.999-31.855h480.003c17.672 0 31.999 14.238 31.999 31.789v544.211h-128.067c-35.309 0-63.933 28.37-63.933 64.189v159.811zM640 816v-143.719c0-17.828 14.421-32.281 31.896-32.281h118.503l-150.398 176zM416 304.173v47.827h32v-47.764c0-44.313 35.509-80.236 80-80.236 44.183 0 80 35.989 80 80.236v47.764h32v-47.827c0-56.562-41.723-103.27-96-111.038v-65.135h64v-32h-160v32h64v65.14c-54.186 7.788-96 54.532-96 111.033v0zM480 431.946v0c0 26.576 21.49 48.054 48 48.054 26.694 0 48-21.514 48-48.054v-127.893c0-26.576-21.49-48.054-48-48.054-26.694 0-48 21.514-48 48.054v127.893zM528 448c-8.837 0-16-6.875-16-15.926v-128.147c0-8.796 7.422-15.926 16-15.926 8.837 0 16 6.875 16 15.926v128.147c0 8.796-7.422 15.926-16 15.926v0z" />
<glyph unicode="&#xe979;" glyph-name="document-recording1" d="M608 864h-319.727c-35.497 0-64.273-28.747-64.273-64.235v-735.531c0-35.476 28.51-64.235 63.918-64.235h480.165c35.301 0 63.918 28.51 63.918 63.918v544.082h-159.811c-35.451 0-64.189 28.375-64.189 63.939v192.061zM416 304.173v47.827h32v-47.764c0-44.313 35.509-80.236 80-80.236 44.183 0 80 35.989 80 80.236v47.764h32v-47.827c0-56.562-41.723-103.27-96-111.038v-65.135h64v-32h-160v32h64v65.14c-54.186 7.788-96 54.532-96 111.033v0zM640 864v-191.906c0-17.725 14.431-32.094 31.705-32.094h160.295l-192 224zM480 431.946v0c0 26.576 21.49 48.054 48 48.054 26.694 0 48-21.514 48-48.054v-127.893c0-26.576-21.49-48.054-48-48.054-26.694 0-48 21.514-48 48.054v127.893zM528 448c-8.837 0-16-6.875-16-15.926v-128.147c0-8.796 7.422-15.926 16-15.926 8.837 0 16 6.875 16 15.926v128.147c0 8.796-7.422 15.926-16 15.926v0z" />
<glyph unicode="&#xe97a;" glyph-name="document-table" d="M512 288v-64h-128v64h128zM544 288h128v-64h-128v64zM512 128h-128v64h128v-64zM544 128v64h128v-64h-128zM512 384v-64h-128v64h128zM544 384h128v-64h-128v64zM512 480v-64h-128v64h128zM544 480h128v-64h-128v64zM624 864h16l192-224v-576.295c0-34.963-28.617-63.705-63.918-63.705h-480.165c-35.408 0-63.918 28.759-63.918 64.235v735.531c0 35.488 28.693 64.235 64.088 64.235h335.912zM608 832h-320.142c-17.595 0-31.858-14.568-31.858-31.855v-736.291c0-17.593 14.551-31.855 31.999-31.855h480.003c17.672 0 31.999 14.238 31.999 31.789v544.211h-128.067c-35.309 0-63.933 28.37-63.933 64.189v159.811zM640 816v-143.719c0-17.828 14.421-32.281 31.896-32.281h118.503l-150.398 176zM352 544v-448h352v448h-352z" />
<glyph unicode="&#xe97b;" glyph-name="document-table1" d="M512 288h-128v-64h128v64zM544 288h128v-64h-128v64zM512 128h-128v64h128v-64zM544 128h128v64h-128v-64zM512 384h-128v-64h128v64zM544 384h128v-64h-128v64zM512 480h-128v-64h128v64zM544 480h128v-64h-128v64zM608 864v-192.061c0-35.565 28.739-63.939 64.189-63.939h159.811v-544.082c0-35.408-28.617-63.918-63.918-63.918h-480.165c-35.408 0-63.918 28.759-63.918 64.235v735.531c0 35.488 28.776 64.235 64.273 64.235h319.727zM640 864v-191.906c0-17.725 14.431-32.094 31.705-32.094h160.295l-192 224zM352 544v-448h352v448h-352z" />
<glyph unicode="&#xe97c;" glyph-name="document-music" d="M704 472.889v-200.883c-13.371 10.043-29.99 15.994-48 15.994-44.183 0-80-35.817-80-80s35.817-80 80-80c44.183 0 80 35.817 80 80v304l-288-64v-207.994c-13.371 10.043-29.99 15.994-48 15.994-44.183 0-80-35.817-80-80s35.817-80 80-80c44.183 0 80 35.817 80 80v247.111l224 49.778zM624 864h16l192-224v-576.295c0-34.963-28.617-63.705-63.918-63.705h-480.165c-35.408 0-63.918 28.759-63.918 64.235v735.531c0 35.488 28.693 64.235 64.088 64.235h335.912zM608 832h-320.142c-17.595 0-31.858-14.568-31.858-31.855v-736.291c0-17.593 14.551-31.855 31.999-31.855h480.003c17.672 0 31.999 14.238 31.999 31.789v544.211h-128.067c-35.309 0-63.933 28.37-63.933 64.189v159.811zM640 816v-143.719c0-17.828 14.421-32.281 31.896-32.281h118.503l-150.398 176zM400 128v0c-26.51 0-48 21.49-48 48s21.49 48 48 48c26.51 0 48-21.49 48-48s-21.49-48-48-48zM656 160v0c-26.51 0-48 21.49-48 48s21.49 48 48 48c26.51 0 48-21.49 48-48s-21.49-48-48-48z" />
<glyph unicode="&#xe97d;" glyph-name="document-music1" d="M704 472.889l-224-49.778v-247.111c0-44.183-35.817-80-80-80s-80 35.817-80 80c0 44.183 35.817 80 80 80 18.010 0 34.629-5.951 48-15.994v207.994l288 64v-304c0-44.183-35.817-80-80-80s-80 35.817-80 80c0 44.183 35.817 80 80 80 18.010 0 34.629-5.951 48-15.994v200.883zM608 864h-319.727c-35.497 0-64.273-28.747-64.273-64.235v-735.531c0-35.476 28.51-64.235 63.918-64.235h480.165c35.301 0 63.918 28.51 63.918 63.918v544.082h-159.811c-35.451 0-64.189 28.375-64.189 63.939v192.061zM640 864v-191.906c0-17.725 14.431-32.094 31.705-32.094h160.295l-192 224zM400 128c26.51 0 48 21.49 48 48s-21.49 48-48 48c-26.51 0-48-21.49-48-48s21.49-48 48-48v0zM656 160c26.51 0 48 21.49 48 48s-21.49 48-48 48c-26.51 0-48-21.49-48-48s21.49-48 48-48v0z" />
<glyph unicode="&#xe97e;" glyph-name="document-movie" d="M624 864h16l192-224v-576.295c0-34.963-28.617-63.705-63.918-63.705h-480.165c-35.408 0-63.918 28.759-63.918 64.235v735.531c0 35.488 28.693 64.235 64.088 64.235h335.912zM608 832h-320.142c-17.595 0-31.858-14.568-31.858-31.855v-736.291c0-17.593 14.551-31.855 31.999-31.855h480.003c17.672 0 31.999 14.238 31.999 31.789v544.211h-128.067c-35.309 0-63.933 28.37-63.933 64.189v159.811zM640 816v-143.719c0-17.828 14.421-32.281 31.896-32.281h118.503l-150.398 176zM320 448h416v-352h-416v352zM416 416v-128h224v128h-224zM416 256v-128h224v128h-224zM352 416v-32h32v32h-32zM352 352v-32h32v32h-32zM352 288v-32h32v32h-32zM352 224v-32h32v32h-32zM352 160v-32h32v32h-32zM672 416v-32h32v32h-32zM672 352v-32h32v32h-32zM672 288v-32h32v32h-32zM672 224v-32h32v32h-32zM672 160v-32h32v32h-32z" />
<glyph unicode="&#xe97f;" glyph-name="document-movie1" d="M608 864v-192.061c0-35.565 28.739-63.939 64.189-63.939h159.811v-544.082c0-35.408-28.617-63.918-63.918-63.918h-480.165c-35.408 0-63.918 28.759-63.918 64.235v735.531c0 35.488 28.776 64.235 64.273 64.235h319.727zM640 864v-191.906c0-17.725 14.431-32.094 31.705-32.094h160.295l-192 224zM320 448v-352h416v352h-416zM416 416v-128h224v128h-224zM416 256v-128h224v128h-224zM352 416v-32h32v32h-32zM352 352v-32h32v32h-32zM352 288v-32h32v32h-32zM352 224v-32h32v32h-32zM352 160v-32h32v32h-32zM672 416v-32h32v32h-32zM672 352v-32h32v32h-32zM672 288v-32h32v32h-32zM672 224v-32h32v32h-32zM672 160v-32h32v32h-32z" />
<glyph unicode="&#xe980;" glyph-name="document-play" d="M624 864h16l192-224v-576.295c0-34.963-28.617-63.705-63.918-63.705h-480.165c-35.408 0-63.918 28.759-63.918 64.235v735.531c0 35.488 28.693 64.235 64.088 64.235h335.912zM608 832h-320.142c-17.595 0-31.858-14.568-31.858-31.855v-736.291c0-17.593 14.551-31.855 31.999-31.855h480.003c17.672 0 31.999 14.238 31.999 31.789v544.211h-128.067c-35.309 0-63.933 28.37-63.933 64.189v159.811zM640 816v-143.719c0-17.828 14.421-32.281 31.896-32.281h118.503l-150.398 176zM384 416l288-144-288-144v288zM416 364.8v-185.6l185.602 92.8-185.602 92.8z" />
<glyph unicode="&#xe981;" glyph-name="document-play1" d="M608 864v-192.061c0-35.565 28.739-63.939 64.189-63.939h159.811v-544.082c0-35.408-28.617-63.918-63.918-63.918h-480.165c-35.408 0-63.918 28.759-63.918 64.235v735.531c0 35.488 28.776 64.235 64.273 64.235h319.727zM640 864v-191.906c0-17.725 14.431-32.094 31.705-32.094h160.295l-192 224zM384 416v-288l288 144-288 144zM416 364.8v-185.6l185.602 92.8-185.602 92.8z" />
<glyph unicode="&#xe982;" glyph-name="document-graph" d="M478.699 262.353l-94.699-101.552v-0.8h320v-32h-352v256h32v-176.279l93.12 99.859 70.21-65.472 102.476 109.892h-41.805v32h96v-96h-32v40.88l-123.091-131.999-70.21 65.472zM624 864h16l192-224v-576.295c0-34.963-28.617-63.705-63.918-63.705h-480.165c-35.408 0-63.918 28.759-63.918 64.235v735.531c0 35.488 28.693 64.235 64.088 64.235h335.912zM608 832h-320.142c-17.595 0-31.858-14.568-31.858-31.855v-736.291c0-17.593 14.551-31.855 31.999-31.855h480.003c17.672 0 31.999 14.238 31.999 31.789v544.211h-128.067c-35.309 0-63.933 28.37-63.933 64.189v159.811zM640 816v-143.719c0-17.828 14.421-32.281 31.896-32.281h118.503l-150.398 176z" />
<glyph unicode="&#xe983;" glyph-name="document-graph1" d="M608 864h-319.727c-35.497 0-64.273-28.747-64.273-64.235v-735.531c0-35.476 28.51-64.235 63.918-64.235h480.165c35.301 0 63.918 28.51 63.918 63.918v544.082h-159.811c-35.451 0-64.189 28.375-64.189 63.939v192.061zM640 864v-191.906c0-17.725 14.431-32.094 31.705-32.094h160.295l-192 224zM478.699 262.353l-94.699-101.552v-0.8h320v-32h-352v256h32v-176.279l93.12 99.859 70.21-65.472 102.476 109.892h-41.805v32h96v-96h-32v40.88l-123.091-131.999-70.21 65.472z" />
<glyph unicode="&#xe984;" glyph-name="document-time" d="M671.121 288h-127.121v127.121c66.746-7.378 119.743-60.375 127.121-127.121zM671.121 256c-7.959-71.999-69-128-143.121-128-79.529 0-144 64.471-144 144 0 74.121 56.001 135.162 128 143.121v-159.121h159.121zM624 864h16l192-224v-576.295c0-34.963-28.617-63.705-63.918-63.705h-480.165c-35.408 0-63.918 28.759-63.918 64.235v735.531c0 35.488 28.693 64.235 64.088 64.235h335.912zM608 832h-320.142c-17.595 0-31.858-14.568-31.858-31.855v-736.291c0-17.593 14.551-31.855 31.999-31.855h480.003c17.672 0 31.999 14.238 31.999 31.789v544.211h-128.067c-35.309 0-63.933 28.37-63.933 64.189v159.811zM640 816v-143.719c0-17.828 14.421-32.281 31.896-32.281h118.503l-150.398 176zM528 96c97.202 0 176 78.798 176 176s-78.798 176-176 176c-97.202 0-176-78.798-176-176s78.798-176 176-176v0z" />
<glyph unicode="&#xe985;" glyph-name="document-time1" d="M703.283 288h-159.283v159.283c84.434-7.609 151.674-74.848 159.283-159.283zM703.283 256c-8.084-89.704-83.474-160-175.283-160-97.202 0-176 78.798-176 176 0 91.809 70.296 167.199 160 175.283v-191.283h191.283zM608 864h-319.727c-35.497 0-64.273-28.747-64.273-64.235v-735.531c0-35.476 28.51-64.235 63.918-64.235h480.165c35.301 0 63.918 28.51 63.918 63.918v544.082h-159.811c-35.451 0-64.189 28.375-64.189 63.939v192.061zM640 864v-191.906c0-17.725 14.431-32.094 31.705-32.094h160.295l-192 224z" />
<glyph unicode="&#xe986;" glyph-name="document-text4" d="M624 864h16l192-224v-576.295c0-34.963-28.617-63.705-63.918-63.705h-480.165c-35.408 0-63.918 28.759-63.918 64.235v735.531c0 35.488 28.693 64.235 64.088 64.235h335.912zM608 832h-320.142c-17.595 0-31.858-14.568-31.858-31.855v-736.291c0-17.593 14.551-31.855 31.999-31.855h480.003c17.672 0 31.999 14.238 31.999 31.789v544.211h-128.067c-35.309 0-63.933 28.37-63.933 64.189v159.811zM640 816v-143.719c0-17.828 14.421-32.281 31.896-32.281h118.503l-150.398 176zM320 768v-64h32v32h32v-128h32v128h32v-32h32v64h-160zM320 448v-32h416v32h-416zM320 544v-32h416v32h-416zM320 352v-32h416v32h-416zM320 256v-32h416v32h-416zM320 160v-32h416v32h-416z" />
<glyph unicode="&#xe987;" glyph-name="document-text5" d="M608 864v-192.061c0-35.565 28.739-63.939 64.189-63.939h159.811v-544.082c0-35.408-28.617-63.918-63.918-63.918h-480.165c-35.408 0-63.918 28.759-63.918 64.235v735.531c0 35.488 28.776 64.235 64.273 64.235h319.727zM320 768v-64h32v32h32v-128h32v128h32v-32h32v64h-160zM640 864v-191.906c0-17.725 14.431-32.094 31.705-32.094h160.295l-192 224zM320 448v-32h416v32h-416zM320 544v-32h416v32h-416zM320 352v-32h416v32h-416zM320 256v-32h416v32h-416zM320 160v-32h416v32h-416z" />
<glyph unicode="&#xe988;" glyph-name="document-code" d="M624 864h16l192-224v-576.295c0-34.963-28.617-63.705-63.918-63.705h-480.165c-35.408 0-63.918 28.759-63.918 64.235v735.531c0 35.488 28.693 64.235 64.088 64.235h335.912zM608 832h-320.142c-17.595 0-31.858-14.568-31.858-31.855v-736.291c0-17.593 14.551-31.855 31.999-31.855h480.003c17.672 0 31.999 14.238 31.999 31.789v544.211h-128.067c-35.309 0-63.933 28.37-63.933 64.189v159.811zM640 816v-143.719c0-17.828 14.421-32.281 31.896-32.281h118.503l-150.398 176zM544 384l-64-256h32l64 256h-32zM416 160l-96 96 96 96 22.4-22.4-73.6-73.6 73.6-73.6-22.4-22.4zM640 160l96 96-96 96-22.4-22.4 73.6-73.6-73.6-73.6 22.4-22.4z" />
<glyph unicode="&#xe989;" glyph-name="document-code1" d="M608 864v-192.061c0-35.565 28.739-63.939 64.189-63.939h159.811v-544.082c0-35.408-28.617-63.918-63.918-63.918h-480.165c-35.408 0-63.918 28.759-63.918 64.235v735.531c0 35.488 28.776 64.235 64.273 64.235h319.727zM640 864v-191.906c0-17.725 14.431-32.094 31.705-32.094h160.295l-192 224zM416 128l22.4 22.4-105.6 105.6 105.6 105.6-22.4 22.4-128-128 128-128zM640 128l128 128-128 128-22.4-22.4 105.6-105.6-105.6-105.6 22.4-22.4zM544 384l-64-256h32l64 256h-32z" />
<glyph unicode="&#xe98a;" glyph-name="document-cloud" d="M513.134 288h-0.947c-35.45 0-64.187-28.407-64.187-64 0-35.346 28.706-64 64.187-64h319.625c35.45 0 64.187 28.407 64.187 64 0 35.346-28.706 64-64.187 64h-1.413c-7.412 36.516-39.696 64-78.4 64-8.724 0-17.122-1.397-24.983-3.978-17.103 39.971-56.789 67.978-103.017 67.978-61.856 0-112-50.144-112-112 0-5.432 0.387-10.774 1.134-16v0zM736 394.517v0 0c2.809-3.471 5.46-7.076 7.942-10.803 2.661 0.189 5.349 0.285 8.058 0.285 45.721 0 85.043-27.396 102.446-66.668 42.404-10.151 73.554-48.086 73.554-93.332 0-52.911-43.116-96-96.303-96h-95.697v-64.295c0-34.963-28.617-63.705-63.918-63.705h-480.165c-35.408 0-63.918 28.759-63.918 64.235v735.531c0 35.488 28.693 64.235 64.088 64.235h351.912l192-224v-245.483zM704 423.751v184.249h-128.067c-35.309 0-63.933 28.37-63.933 64.189v159.811h-320.142c-17.595 0-31.858-14.568-31.858-31.855v-736.291c0-17.593 14.551-31.855 31.999-31.855h480.003c17.672 0 31.999 14.238 31.999 31.789v64.211h-191.697c-53.531 0-96.303 42.981-96.303 96 0 41.781 26.885 77.438 64.383 90.59 5.421 74.584 67.649 133.41 143.617 133.41 29.602 0 57.118-8.932 80-24.249v0 0zM544 816v-143.719c0-17.828 14.421-32.281 31.896-32.281h118.503l-150.398 176z" />
<glyph unicode="&#xe98b;" glyph-name="document-cloud1" d="M743.942 383.715c2.661 0.189 5.349 0.285 8.058 0.285 45.721 0 85.043-27.396 102.446-66.668v0c42.404-10.151 73.554-48.086 73.554-93.332 0-52.911-43.116-96-96.303-96h-319.393c-53.531 0-96.303 42.981-96.303 96 0 41.781 26.885 77.438 64.383 90.59 5.421 74.584 67.649 133.41 143.617 133.41 50.050 0 94.136-25.534 119.942-64.285v0zM736 96v-32.082c0-35.408-28.617-63.918-63.918-63.918h-480.165c-35.408 0-63.918 28.759-63.918 64.235v735.531c0 35.488 28.776 64.235 64.273 64.235h319.727v-192.061c0-35.565 28.739-63.939 64.189-63.939h159.811v-168.229c-30.43 25.131-69.452 40.229-112 40.229-86.075 0-157.718-61.79-172.993-143.433-39.908-21.695-67.007-64.031-67.007-112.567 0-70.692 57.243-128 127.878-128h224.122zM544 864v-191.906c0-17.725 14.431-32.094 31.705-32.094h160.295l-192 224z" />
<glyph unicode="&#xe98c;" glyph-name="documents" d="M223.918 799.945l0.083 0.055c0 0 0 0-0.001 0s0 0 0.001 0c0.126 35.38 28.694 64 63.917 64 0.209 35.38 28.854 64 64.171 64h351.912l192-224v-576.295c0-34.963-28.617-63.705-63.918-63.705-0.209-35.38-28.777-64-64-64-0.209-35.38-28.777-64-64-64h-480.165c-35.408 0-63.918 28.759-63.918 64.235v735.531c0 35.488 28.617 64.235 63.918 64.235v-0.055zM223.999 768c-17.672 0-31.999-14.568-31.999-31.855v-736.291c0-17.593 14.551-31.855 31.999-31.855h480.003c17.672 0 31.999 14.568 31.999 31.855l-448.082 0.145c-35.408 0-63.918 28.759-63.918 64.235v703.765c0 0 0 0-0.001 0.001v-0.001zM287.999 832c-17.672 0-31.999-14.568-31.999-31.855v-736.291c0-17.593 14.551-31.855 31.999-31.855h480.003c17.672 0 31.999 14.568 31.999 31.855v0.145h-448.082c-35.408 0-63.918 28.759-63.918 64.235v703.765h-0.001zM672 896h-320.142c-17.595 0-31.858-14.568-31.858-31.855v-736.291c0-17.593 14.551-31.855 31.999-31.855h480.003c17.672 0 31.999 14.238 31.999 31.789v544.211h-128.067c-35.309 0-63.933 28.37-63.933 64.189v159.811zM704 880v-143.719c0-17.828 14.421-32.281 31.896-32.281h118.503l-150.398 176z" />
<glyph unicode="&#xe98d;" glyph-name="documents1" d="M287.918 864c0.209 35.38 28.937 64 64.355 64h319.727v-192.061c0-35.565 28.739-63.939 64.189-63.939h159.811v-544.082c0-35.408-28.617-63.918-63.918-63.918-0.209-35.38-28.777-64-64-64-0.209-35.38-28.777-64-64-64h-480.165c-35.408 0-63.918 28.759-63.918 64.235v735.531c0 35.488 28.617 64.235 63.918 64.235 0.082 35.253 28.699 64 64 64v0zM224 64.235l-0.001 703.765c-17.672 0-31.999-14.568-31.999-31.855v-736.291c0-17.593 14.551-31.855 31.999-31.855h480.003c17.672 0 31.999 14.568 31.999 31.855l-448.082 0.145c-35.408 0-63.918 28.759-63.918 64.235zM256 800.145v-736.291c0-17.593 14.551-31.855 31.999-31.855h480.003c17.672 0 31.999 14.568 31.999 31.855l-448.082 0.145c-35.408 0-63.918 28.759-63.918 64.235v703.765c-17.674 0-32-14.568-32-31.855v0zM704 928v-191.906c0-17.725 14.431-32.094 31.705-32.094h160.295l-192 224z" />
<glyph unicode="&#xe98e;" glyph-name="documents2" d="M736 560v-432h128.001c17.672 0 31.999 14.238 31.999 31.789v544.211h-128.067c-35.309 0-63.933 28.37-63.933 64.189v159.811h-320.142c-17.595 0-31.858-14.568-31.858-31.855v-96.145h192l192-224v-16zM320 800v95.765c0 35.488 28.693 64.235 64.088 64.235h351.912l192-224v-576.295c0-34.963-28.617-63.705-63.918-63.705h-128.082v-96.295c0-34.963-28.617-63.705-63.918-63.705h-480.165c-35.408 0-63.918 28.759-63.918 64.235v735.531c0 35.488 28.693 64.235 64.088 64.235h127.912zM736 912v-143.719c0-17.828 14.421-32.281 31.896-32.281h118.503l-150.398 176zM512 768h-320.142c-17.595 0-31.858-14.568-31.858-31.855v-736.291c0-17.593 14.551-31.855 31.999-31.855h480.003c17.672 0 31.999 14.238 31.999 31.789v544.211h-128.067c-35.309 0-63.933 28.37-63.933 64.189v159.811zM544 752v-143.719c0-17.828 14.421-32.281 31.896-32.281h118.503l-150.398 176z" />
<glyph unicode="&#xe98f;" glyph-name="documents3" d="M736 96h128.082c35.301 0 63.918 28.51 63.918 63.918v544.082h-159.811c-35.451 0-64.189 28.375-64.189 63.939v192.061h-319.727c-35.497 0-64.273-28.747-64.273-64.235v-63.765h240l208-243.2v-492.8h-32v448h-159.811c-35.451 0-64.189 28.375-64.189 63.939v192.061h-319.727c-35.497 0-64.273-28.747-64.273-64.235v-735.531c0-35.476 28.51-64.235 63.918-64.235h480.165c35.301 0 63.918 28.51 63.918 63.918v96.082zM736 960v-191.906c0-17.725 14.431-32.094 31.705-32.094h160.295l-192 224zM544 800v-191.906c0-17.725 14.431-32.094 31.705-32.094h160.295l-192 224z" />
<glyph unicode="&#xe990;" glyph-name="document-search" d="M553.883 255.49c-24.635-19.706-55.883-31.49-89.883-31.49-79.529 0-144 64.471-144 144s64.471 144 144 144c79.529 0 144-64.471 144-144 0-34-11.784-65.248-31.49-89.883l171.136-171.136-22.627-22.627-171.136 171.136zM624 864h16l192-224v-576.295c0-34.963-28.617-63.705-63.918-63.705h-480.165c-35.408 0-63.918 28.759-63.918 64.235v735.531c0 35.488 28.693 64.235 64.088 64.235h335.912zM608 832h-320.142c-17.595 0-31.858-14.568-31.858-31.855v-736.291c0-17.593 14.551-31.855 31.999-31.855h480.003c17.672 0 31.999 14.238 31.999 31.789v544.211h-128.067c-35.309 0-63.933 28.37-63.933 64.189v159.811zM640 816v-143.719c0-17.828 14.421-32.281 31.896-32.281h118.503l-150.398 176zM464 256c61.856 0 112 50.144 112 112s-50.144 112-112 112c-61.856 0-112-50.144-112-112s50.144-112 112-112v0z" />
<glyph unicode="&#xe991;" glyph-name="document-search1" d="M553.883 255.49c-24.635-19.706-55.883-31.49-89.883-31.49-79.529 0-144 64.471-144 144s64.471 144 144 144c79.529 0 144-64.471 144-144 0-34-11.784-65.248-31.49-89.883l171.136-171.136-22.627-22.627-171.136 171.136zM608 864h-319.727c-35.497 0-64.273-28.747-64.273-64.235v-735.531c0-35.476 28.51-64.235 63.918-64.235h480.165c35.301 0 63.918 28.51 63.918 63.918v544.082h-159.811c-35.451 0-64.189 28.375-64.189 63.939v192.061zM640 864v-191.906c0-17.725 14.431-32.094 31.705-32.094h160.295l-192 224zM464 256c61.856 0 112 50.144 112 112s-50.144 112-112 112c-61.856 0-112-50.144-112-112s50.144-112 112-112v0z" />
<glyph unicode="&#xe992;" glyph-name="document-star" d="M624 864h16l192-224v-576.295c0-34.963-28.617-63.705-63.918-63.705h-480.165c-35.408 0-63.918 28.759-63.918 64.235v735.531c0 35.488 28.693 64.235 64.088 64.235h335.912zM608 832h-320.142c-17.595 0-31.858-14.568-31.858-31.855v-736.291c0-17.593 14.551-31.855 31.999-31.855h480.003c17.672 0 31.999 14.238 31.999 31.789v544.211h-128.067c-35.309 0-63.933 28.37-63.933 64.189v159.811zM640 816v-143.719c0-17.828 14.421-32.281 31.896-32.281h118.503l-150.398 176zM528 224l-128-96 48 160-128 96h160l48 160 48-160h160l-128-96 48-160-128 96z" />
<glyph unicode="&#xe993;" glyph-name="document-star1" d="M608 864h-319.727c-35.497 0-64.273-28.747-64.273-64.235v-735.531c0-35.476 28.51-64.235 63.918-64.235h480.165c35.301 0 63.918 28.51 63.918 63.918v544.082h-159.811c-35.451 0-64.189 28.375-64.189 63.939v192.061zM640 864v-191.906c0-17.725 14.431-32.094 31.705-32.094h160.295l-192 224zM528 224l-128-96 48 160-128 96h160l48 160 48-160h160l-128-96 48-160-128 96z" />
<glyph unicode="&#xe994;" glyph-name="document-unlocked" d="M768 373.186v298.814l-192 224h-351.912c-35.395 0-64.088-28.747-64.088-64.235v-735.531c0-35.476 28.51-64.235 63.918-64.235h352.082v-31.906c0-17.725 14.282-32.094 31.921-32.094h224.157c17.63 0 31.921 14.182 31.921 31.956v160.116c0 17.633-14.302 31.928-32.078 31.928h-191.922v80.076c0 43.838 35.817 79.924 80 79.924 44.491 0 80-35.783 80-79.924v-16.076h32v15.899c0 44.697-26.201 83.284-64 101.287v0 0zM576 64h-352.001c-17.448 0-31.999 14.262-31.999 31.855v736.291c0 17.286 14.264 31.855 31.858 31.855h320.142v-159.811c0-35.82 28.624-64.189 63.933-64.189h128.067v-257.139c-5.227 0.751-10.569 1.139-16 1.139-61.856 0-112-50.201-112-112.101v-79.899c-17.673 0-32-14.012-32-32.094v-95.906zM576 848l150.398-176h-118.503c-17.475 0-31.896 14.453-31.896 32.281v143.719zM624.11 160h191.781c8.657 0 16.11-7.13 16.11-15.926v-128.147c0-9.051-7.212-15.926-16.11-15.926h-191.781c-8.657 0-16.11 7.13-16.11 15.926v128.147c0 9.051 7.212 15.926 16.11 15.926z" />
<glyph unicode="&#xe995;" glyph-name="document-unlocked1" d="M768 640h-159.811c-35.451 0-64.189 28.375-64.189 63.939v192.061h-319.727c-35.497 0-64.273-28.747-64.273-64.235v-735.531c0-35.476 28.51-64.235 63.918-64.235h320.082v128.061c0 23.848 12.872 44.463 32 55.458v56.735c0 79.203 64.471 143.746 144 143.746 16.82 0 32.978-2.89 48-8.202v232.202zM576 704.094c0-17.725 14.431-32.094 31.705-32.094h160.295l-192 224v-191.906zM816.039 192h16.039c17.639 0 31.921-14.369 31.921-32.094v-159.813c0-18.082-14.292-32.094-31.921-32.094h-224.157c-17.639 0-31.921 14.369-31.921 32.094v159.813c0 18.082 14.292 32.094 32 32.094v80.080c0 61.92 50.144 111.92 112 111.92 61.73 0 112-50.109 112-111.92v-16.080h-32v15.702c0 44.347-35.509 80.298-80 80.298-44.183 0-80-35.596-80-80.298v-79.702h176.039z" />
<glyph unicode="&#xe996;" glyph-name="document-locked" d="M576 32v-31.906c0-17.725 14.282-32.094 31.921-32.094h224.157c17.63 0 31.921 14.012 31.921 32.094v159.813c0 17.725-14.282 32.094-31.921 32.094h-0.079v47.827c0 44.726-26.201 83.338-64 101.352v330.821l-192 224h-351.912c-35.395 0-64.088-28.747-64.088-64.235v-735.531c0-35.476 28.51-64.235 63.918-64.235h352.082zM576 64h-352.001c-17.448 0-31.999 14.262-31.999 31.855v736.291c0 17.286 14.264 31.855 31.858 31.855h320.142v-159.811c0-35.82 28.624-64.189 63.933-64.189h128.067v-289.14c-5.227 0.751-10.569 1.14-16 1.14-61.856 0-112-50.166-112-112.173v-47.827h-0.079c-17.63 0-31.921-14.012-31.921-32.094v-95.906zM640 192v47.702c0 44.702 35.817 80.298 80 80.298 44.491 0 80-35.95 80-80.298v-47.702h-160zM576 848l150.398-176h-118.503c-17.475 0-31.896 14.453-31.896 32.281v143.719zM624.11 160h191.781c8.657 0 16.11-7.13 16.11-15.926v-128.147c0-9.051-7.212-15.926-16.11-15.926h-191.781c-8.657 0-16.11 7.13-16.11 15.926v128.147c0 9.051 7.212 15.926 16.11 15.926z" />
<glyph unicode="&#xe997;" glyph-name="document-locked1" d="M768 640h-159.811c-35.451 0-64.189 28.375-64.189 63.939v192.061h-319.727c-35.497 0-64.273-28.747-64.273-64.235v-735.531c0-35.476 28.51-64.235 63.918-64.235h320.082v143.946c0 20.914 13.351 38.671 32 45.287v18.68c0 79.329 64.471 144.086 144 144.086 16.82 0 32.978-2.897 48-8.221v264.221zM576 704.094c0-17.725 14.431-32.094 31.705-32.094h160.295l-192 224v-191.906zM608 239.827l-0.079-47.827c-17.63 0-31.921-14.012-31.921-32.094v-159.813c0-17.725 14.282-32.094 31.921-32.094h224.157c17.63 0 31.921 14.012 31.921 32.094v159.813c0 17.725-14.282 32.094-32 32.094v47.827c0 61.951-50.27 112.173-112 112.173-61.856 0-112-50.166-112-112.173zM640 239.702c0 44.702 35.817 80.298 80 80.298 44.491 0 80-35.95 80-80.298v-47.702h-160v47.702z" />
<glyph unicode="&#xe998;" glyph-name="document-error" d="M768 130.462v541.538l-192 224h-351.912c-35.395 0-64.088-28.747-64.088-64.235v-735.531c0-35.476 28.51-64.235 63.918-64.235h261.901l-37.818-64h416l-96 162.462zM504.727 64h-280.729c-17.448 0-31.999 14.262-31.999 31.855v736.291c0 17.286 14.264 31.855 31.858 31.855h320.142v-159.811c0-35.82 28.624-64.189 63.933-64.189h128.067v-455.385l-80 135.385-151.273-256zM576 848l150.398-176h-118.503c-17.475 0-31.896 14.453-31.896 32.281v143.719zM656 256l152-256h-304l152 256zM640 192v-96h32v96h-32zM640 64v-32h32v32h-32z" />
</font>
</defs>
</svg>
